<?xml version="1.0" standalone="no"?>
<!DOCTYPE svg PUBLIC "-//W3C//DTD SVG 1.1//EN" "http://www.w3.org/Graphics/SVG/1.1/DTD/svg11.dtd">
<svg xmlns="http://www.w3.org/2000/svg">
<defs>
<font id="RockSolidIcons" horiz-adv-x="512">
<font-face units-per-em="512" ascent="448" descent="-64" x-height="240" cap-height="480"/>
<missing-glyph horiz-adv-x="512"/>
<glyph unicode="&#xE150;" glyph-name="3d" horiz-adv-x="512" d="M240 416L0 320v-224l240 -108.5L480 96V320L240 416zM224 32.3L32 115.2V270.933l192 -82.9V32.3zM41.498 302.134L240 381.535 l198.502 -79.401L240 215.767L41.498 302.134zM448 115.2l-192 -82.9V188.033l192 82.9V115.2z"/>
<glyph unicode="&#xE001;" glyph-name="addressbook" horiz-adv-x="512" d="M31.246 335.754c0 9.585 7.772 17.356 17.356 17.356h51.746c9.584 0 17.355 -7.771 17.355 -17.356 c0 -9.584 -7.771 -17.355 -17.355 -17.355H48.602C39.018 318.398 31.246 326.169 31.246 335.754zM48.602 222.94h51.746 c9.584 0 17.355 7.771 17.355 17.355c0 9.585 -7.771 17.356 -17.355 17.356H48.602c-9.584 0 -17.356 -7.771 -17.356 -17.356 C31.246 230.711 39.018 222.94 48.602 222.94zM48.602 127.482h51.746c9.584 0 17.355 7.771 17.355 17.356 s-7.771 17.355 -17.355 17.355H48.602c-9.584 0 -17.356 -7.771 -17.356 -17.355S39.018 127.482 48.602 127.482zM117.703 49.381 c0 9.585 -7.771 17.355 -17.355 17.355H48.602c-9.584 0 -17.356 -7.771 -17.356 -17.355c0 -9.584 7.772 -17.355 17.356 -17.355h51.746 C109.932 32.025 117.703 39.797 117.703 49.381zM479.5 405.178v-425.221c0 -23.966 -19.424 -43.39 -43.39 -43.39H107.67 c-23.966 0 -43.39 19.424 -43.39 43.39v3.797v30.559v0.356h51.797c19.136 0 18.711 15.576 18.711 34.712 s0.425 34.712 -18.711 34.712H64.28v8.322v17.355v0.356h51.797c19.136 0 18.711 15.575 18.711 34.712 c0 19.135 0.425 34.711 -18.711 34.711H64.28v8.322v17.357v0.355h51.797c19.136 0 18.711 15.577 18.711 34.711 c0 19.136 0.425 34.712 -18.711 34.712H64.28v8.322v17.356v0.356h51.797c19.136 0 18.711 15.576 18.711 34.712 s0.425 34.712 -18.711 34.712H64.28v8.322V392.703V405.178c0 23.966 19.424 43.39 43.39 43.39h328.44 C460.076 448.568 479.5 429.144 479.5 405.178zM415.5 102.974c0 7.293 -19.101 17.988 -48.5 28.483 c-29.308 10.457 -38.675 17.097 -38.675 35.985c0 11.341 8.949 7.635 12.877 28.403c1.63 8.612 9.534 0.141 11.049 19.808 c0 7.834 -4.314 9.785 -4.314 9.785s2.191 13.777 3.051 22.704c1.062 11.122 -6.562 39.855 -47.237 39.855s-48.306 -28.733 -47.237 -39.855 c0.859 -8.927 3.051 -22.704 3.051 -22.704s-4.314 -1.951 -4.314 -9.785c1.51 -19.667 9.414 -11.195 11.044 -19.808 c3.933 -20.769 12.877 -17.062 12.877 -28.403c0 -18.889 -9.362 -25.528 -38.669 -35.985c-29.4 -10.495 -48.5 -21.19 -48.5 -28.483 c0 -7.289 0 -38.509 0 -38.509h111.75H415.5C415.5 64.465 415.5 95.685 415.5 102.974z"/>
<glyph unicode="&#xE002;" glyph-name="airplane" horiz-adv-x="512" d="M225.035 417.879c0.137 39.673 61.675 39.673 61.675 -1.08v-156.226l225.162 -133.14v-58.478l-225.121 72.541v-118.205 l52.548 -39.953v-46.155l-84.035 24.413l-81.013 -24.413v46.155l52.01 39.953V141.496L0 68.955v58.478l225.035 133.14V417.879z"/>
<glyph unicode="&#xE003;" glyph-name="amazon-2" horiz-adv-x="512" d="M291.765 242.281c-10.922 0 -21.844 -0.718 -31.312 -2.906c-17.469 -5.094 -31.313 -16.031 -31.313 -39.313 c0 -18.219 9.485 -30.594 25.5 -30.594c2.188 0 4.36 0.751 5.813 0.751c9.468 2.188 18.201 8.749 23.297 18.938 c8.72 14.533 8.016 27.626 8.016 44.377L291.765 242.281L291.765 242.281zM426.671 448H85.344C38.406 448 0 409.596 0 362.656v-341.313C0 -25.625 38.407 -64 85.344 -64h341.328 C473.61 -64 512 -25.626 512 21.344V362.656C512 409.596 473.61 448 426.671 448zM286.671 312.187 c-5.109 7.25 -14.577 10.905 -23.296 10.905c-1.452 0 -2.188 0 -2.922 0c-14.563 -1.469 -27.656 -9.468 -31.313 -25.468 c-0.718 -3.656 -2.891 -7.282 -7.266 -8.033l-40.766 5.096c-2.906 0.748 -7.28 2.938 -5.844 8.75 c8.749 45.875 48.062 61.875 85.188 64.063c2.922 0 5.827 0 8.748 0c20.377 0 46.597 -5.813 63.329 -21.126 c20.375 -18.907 18.204 -44.375 18.204 -72.063v-65.529c0 -19.626 8 -28.375 16.016 -38.563c2.172 -3.658 2.906 -8 -0.72 -10.938 c-8.031 -7.282 -23.313 -20.375 -32.047 -27.656c-2.906 -2.188 -6.546 -2.188 -10.188 -0.718c-13.845 11.625 -16.017 16.718 -24.032 27.655 c-13.826 -14.563 -25.468 -22.563 -39.312 -26.938c-8.721 -2.188 -18.188 -3.625 -29.846 -3.625c-34.937 0 -62.606 21.813 -62.606 64.782 c0 34.218 18.204 57.5 45.141 68.438c13.827 6.53 30.579 9.469 47.313 11.625c10.922 1.467 21.844 2.188 31.312 2.938v5.812 C291.765 291.782 292.469 303.437 286.671 312.187zM413.985 60.406c-5.14 -3.938 -10.656 -7.499 -16.203 -10.688 c-41.531 -24.904 -95.313 -37.968 -141.983 -37.968c-75.156 0 -142.392 27.688 -193.405 73.969c-4.357 3.563 -0.797 8.688 4.343 5.938 c54.984 -32.031 123 -51.438 193.405 -51.438c44.313 0 92.141 8.313 137.641 26.124c3.157 1.188 6.721 2.782 9.874 3.972 C414.781 73.471 421.11 65.532 413.985 60.406zM451.563 85.719c-0.39 -14.25 -7.906 -41.529 -25.703 -56.562 c-3.562 -2.781 -7.109 -1.188 -5.547 2.78c5.157 12.656 17 41.938 11.484 48.653c-3.953 5.126 -20.172 4.72 -34.018 3.563 c-6.327 -0.813 -11.875 -1.188 -16.219 -2c-3.952 -0.375 -4.75 3.154 -0.798 5.938c5.141 3.563 10.688 6.313 17.017 8.313 c22.53 6.722 48.655 2.752 52.221 -1.592c0.778 -1.188 1.562 -3.531 1.562 -6.721L451.563 85.719L451.563 85.719z"/>
<glyph unicode="&#xE004;" glyph-name="amazon" horiz-adv-x="512" d="M454.655 95.238c-62.828 -26.668 -131.154 -39.521 -193.27 -39.521c-92.1 0 -181.261 25.24 -253.37 67.197 c-6.297 3.691 -11 -2.771 -5.753 -7.521c66.818 -60.353 155.136 -96.638 253.243 -96.638c69.969 0 151.232 22.052 207.298 63.375 C472.084 89.023 464.147 99.27 454.655 95.238zM510.049 127.031c-6.129 7.559 -58.711 14.068 -90.756 -8.484c-4.956 -3.443 -4.113 -8.23 1.387 -7.561 c18.059 2.145 58.291 6.973 65.431 -2.186c7.188 -9.195 -7.978 -47.033 -14.738 -63.918c-2.059 -5.122 2.353 -7.182 6.973 -3.316 C508.45 66.723 516.182 119.428 510.049 127.031zM269.739 273.544c-24.436 -2.787 -56.403 -4.565 -79.298 -14.646c-26.394 -11.39 -44.96 -34.698 -44.96 -68.923 c0 -43.832 27.641 -65.717 63.109 -65.717c30.011 0 46.381 7.061 69.511 30.666c7.71 -11.094 10.203 -16.492 24.197 -28.115 c3.146 -1.658 7.179 -1.479 9.965 1.01l0.119 -0.117c8.423 7.475 23.726 20.814 32.32 27.996c3.442 2.848 2.851 7.408 0.119 11.209 c-7.709 10.678 -15.895 19.334 -15.895 39.086v65.715c0 27.818 1.959 53.383 -18.566 72.54 c-16.188 15.537 -42.998 20.997 -63.519 20.997c-40.095 0 -84.874 -14.948 -94.307 -64.533c-0.948 -5.276 2.847 -8.063 6.286 -8.837 l40.928 -4.39c3.795 0.18 6.583 3.916 7.296 7.711c3.499 17.082 17.853 25.326 33.925 25.326c8.66 0 18.502 -3.203 23.667 -10.975 c5.869 -8.658 5.1 -20.521 5.1 -30.546L269.739 273.544L269.739 273.544zM261.851 185.883c-6.702 -11.863 -17.322 -19.158 -29.18 -19.158 c-16.192 0 -25.622 12.338 -25.622 30.548c0 35.938 32.204 42.464 62.689 42.464v-9.133 C269.739 214.173 270.156 200.473 261.851 185.883z"/>
<glyph unicode="&amp;" glyph-name="ampersand" horiz-adv-x="512" d="M19.537 321.166c0 28.781 10.508 57.436 28.14 80.033c3.508 4.515 7.14 8.735 11.051 12.695 C69.609 425.81 82.791 434.247 97.098 439.479c4.769 1.744 9.664 3.132 14.639 4.174c48.301 9.96 119.741 -11.365 120.807 -67.876 c1.066 -6.397 -1.066 -12.795 -3.199 -19.193c-2.133 -5.331 -4.265 -10.662 -8.53 -14.927C200.556 382.174 156.84 420.56 108.394 405.284 c-4.458 -1.308 -8.787 -3.01 -12.915 -5.106C83.096 393.89 72.511 384.061 65.616 370.703c-2.751 -4.591 -5.21 -9.525 -7.32 -14.762 c-4.22 -10.474 -7.045 -22.161 -8.056 -34.775c-2.284 -28.517 17.446 -57.915 27.21 -57.915c5.584 0 34.892 18.841 76.757 18.841 c34.189 0 60.701 -15.353 60.701 -39.078c0 -23.72 -28.608 -49.366 -64.194 -49.366h-0.694c-38.378 0 -62.102 26.342 -66.986 26.342 c-5.584 0 -8.374 -7.675 -9.069 -8.375c-12.562 -22.33 -18.842 -47.449 -18.842 -72.565c0 -59.309 40.47 -143.039 174.44 -149.324h12.561 c113.041 0 145.833 72.569 145.833 120.712c0 46.754 -28.611 83.735 -72.57 83.735c-41.168 0 -75.358 -32.795 -75.358 -66.985 c0 -22.327 16.051 -43.26 40.468 -43.26c9.076 0 25.121 4.883 25.121 11.861c0 7.674 -15.35 2.786 -25.814 16.746 c-2.791 4.187 -4.883 9.767 -4.883 15.35c0 13.258 11.16 25.12 27.213 25.12c20.234 0 40.467 -16.745 40.467 -40.469 c0 -27.212 -25.816 -53.032 -60.004 -53.032c-37.677 0 -67.686 31.398 -67.686 70.479c0 36.979 25.82 71.867 67.686 92.801 c58.613 29.307 124.199 23.025 172.346 43.958c29.307 13.256 60.008 40.473 60.008 83.035c0 43.959 -32.795 74.659 -66.287 74.659 c-6.281 0 -20.934 -1.396 -20.934 -6.279c0 -3.488 11.166 -8.371 11.166 -24.421c0 -15.354 -11.863 -28.606 -28.607 -28.606 c-18.143 0 -31.398 16.044 -31.398 34.186c-0.002 30.003 29.301 51.632 61.4 51.632c49.539 0 103.268 -47.449 103.268 -116.525 c0 -75.36 -67.68 -135.367 -145.834 -136.761c-5.578 0 -10.465 0 -10.465 -5.583c0 -4.883 23.725 -30.004 23.725 -78.147v-1.395 c0 -93.5 -93.5 -176.536 -207.936 -176.536C86.522 -64 0 23.225 0 123.003c0 73.263 44.657 113.039 47.448 117.92 c0.696 1.396 1.397 3.487 1.397 4.883v0.7C48.845 254.181 19.537 275.113 19.537 321.166zM190.49 241.623 c0 6.975 -4.884 17.44 -30.002 17.44c-34.891 0 -58.615 -9.766 -58.615 -16.049c0 -2.091 1.395 -3.488 2.095 -4.183 c16.746 -12.562 34.191 -22.854 57.215 -22.854C175.141 215.977 190.49 228.365 190.49 241.623z"/>
<glyph unicode="&#xE005;" glyph-name="anchor" horiz-adv-x="512" d="M511.429 107.791l-16.742 104.368c-1.938 9.753 -10.459 17.187 -20.609 17.187 c-6.201 0 -11.646 -2.643 -15.646 -6.861l-77.166 -72.375c-1.272 -1.098 -2.499 -2.327 -3.603 -3.873c-7.252 -9.887 -5.188 -23.903 4.701 -31.28 c1.891 -1.406 3.956 -2.33 6.021 -3.164l19.379 -6.455c-18.676 -52.733 -64.297 -92.861 -120.325 -103.973V301.05 c27.471 11.689 44.581 38.891 44.581 70.44C332.02 413.806 297.83 448 255.506 448c-42.143 0 -76.463 -34.189 -76.463 -76.51 c0 -31.549 18.775 -58.751 46.108 -70.44v-300.213c-57.259 10.281 -101.632 50.795 -120.748 104.5l19.512 6.455 c2.065 0.834 4.131 1.758 6.065 3.164c9.887 7.377 12.084 21.399 4.657 31.28c-1.098 1.539 -2.197 2.771 -3.56 3.873l-77.199 72.375 c-3.823 4.218 -9.448 6.855 -15.513 6.855c-10.283 0 -18.94 -7.427 -20.748 -17.181L0.87 107.785c-0.39 -1.625 -0.527 -3.422 -0.527 -5.229 c0 -12.349 10.019 -22.373 22.368 -22.373c2.329 0 4.532 0.264 6.597 0.967l18.149 5.887C76.284 -0.58199999999999 156.817 -64 254.155 -64 c100.004 0 181.911 63.424 210.737 151.182l18.104 -6.021c2.066 -0.703 4.269 -0.968 6.592 -0.968 c12.394 0 22.412 10.021 22.412 22.373C512 104.363 511.824 106.166 511.429 107.791zM255.518 340.066 c-17.183 0 -31.283 14.106 -31.283 31.418c0 17.449 14.106 31.467 31.283 31.467c17.451 0 31.47 -14.019 31.47 -31.467 C286.98 354.173 272.963 340.066 255.518 340.066z"/>
<glyph unicode="&#xE006;" glyph-name="android" horiz-adv-x="512" d="M432 288c-17.6 0 -32 -14.4 -32 -32v-128c0 -17.6 14.4 -32 32 -32s32 14.4 32 32V256C464 273.6 449.6 288 432 288zM48 288c-17.6 0 -32 -14.4 -32 -32v-128c0 -17.6 14.4 -32 32 -32s32 14.4 32 32V256C80 273.6 65.599 288 48 288zM96 80c0 -26.51 21.49 -48 48 -48h16v-64c0 -17.6 14.4 -32 32 -32s32 14.4 32 32v64h32v-64c0 -17.6 14.401 -32 32 -32s32 14.4 32 32 v64h16c26.51 0 48 21.49 48 48V256H96V80zM299.299 403.253l20.252 38.903c1.016 1.951 0.25 4.379 -1.701 5.395s-4.379 0.25 -5.395 -1.701l-20.559 -39.493 C275.797 412.581 258.299 416 240 416c-18.298 0 -35.796 -3.419 -51.898 -9.643L167.544 445.849c-1.016 1.951 -3.443 2.717 -5.395 1.701 s-2.717 -3.443 -1.701 -5.395l20.25 -38.904c-45.315 -20.509 -78.12 -63.792 -83.81 -115.252h286.22 C377.42 339.461 344.615 382.743 299.299 403.253zM176 312.8c-12.813 0 -23.2 10.387 -23.2 23.2c0 12.813 10.387 23.2 23.2 23.2 s23.2 -10.387 23.2 -23.2C199.199 323.187 188.813 312.8 176 312.8zM304 312.8c-12.813 0 -23.201 10.387 -23.201 23.2 c0 12.813 10.389 23.2 23.201 23.2s23.199 -10.387 23.199 -23.2C327.199 323.187 316.813 312.8 304 312.8z"/>
<glyph unicode="&#xE007;" glyph-name="aperture" horiz-adv-x="512" d="M484.944 304.432l-159.568 -159.568h181.872C510.128 160.256 512 175.872 512 192 C512 232.528 501.744 270.368 484.944 304.432zM336.88 204.16l131.248 131.184c-31.248 46.064 -77.504 80.336 -131.248 98.336V204.16zM267.968 111.12l131.28 -131.312c46.128 31.184 80.432 77.504 98.432 131.312H267.968zM303.088 260.096V443.248C287.776 446.096 272.128 448 256 448c-40.88 0 -79.008 -10.464 -113.28 -27.536L303.088 260.096zM208.912 122.368v-181.632C224.224 -62.128 239.872 -64 256 -64c40.496 0 78.256 10.256 112.32 27.008 L208.912 122.368zM175.088 179.632L44 48.56c31.184 -46 77.408 -80.256 131.088 -98.256V179.632zM4.752 239.088C1.904 223.776 0 208.128 0 192c0 -40.624 10.32 -78.496 27.12 -112.56l159.664 159.664H4.752zM111.936 403.504C66.256 372.32 32.224 326.336 14.32 272.912h228.224L111.936 403.504z"/>
<glyph unicode="&#xE008;" glyph-name="apple" horiz-adv-x="512" d="M395.749 175.954c-0.647 64.841 52.879 95.938 55.271 97.483c-30.076 44.01 -76.925 50.039 -93.621 50.736 c-39.871 4.037 -77.798 -23.474 -98.033 -23.474c-20.184 0 -51.409 22.877 -84.476 22.276c-43.458 -0.646 -83.529 -25.269 -105.906 -64.19 c-45.152 -78.349 -11.563 -194.42 32.445 -257.963c21.504 -31.102 47.146 -66.038 80.813 -64.79c32.421 1.294 44.681 20.979 83.878 20.979 c39.197 0 50.214 -20.979 84.525 -20.335c34.887 0.648 56.991 31.699 78.346 62.898c24.695 36.084 34.863 71.019 35.462 72.813 C463.679 72.74 396.423 98.505 395.749 175.954zM331.281 366.239C349.15 387.918 361.211 417.995 357.921 448c-25.739 -1.048 -56.939 -17.145 -75.405 -38.775 c-16.571 -19.188 -31.074 -49.813 -27.187 -79.218C284.062 327.765 313.393 344.609 331.281 366.239z"/>
<glyph unicode="&#xE009;" glyph-name="arrow-2-down" horiz-adv-x="512" d="M128 256L256 128L384 256Z"/>
<glyph unicode="&#xE00A;" glyph-name="arrow-2-left" horiz-adv-x="512" d="M320.001 320L192.001 192L320.001 63.999Z"/>
<glyph unicode="&#xE00B;" glyph-name="arrow-2-right" horiz-adv-x="512" d="M192.001 64L320.001 192L192.001 320Z"/>
<glyph unicode="&#xE00C;" glyph-name="arrow-2-up" horiz-adv-x="512" d="M384 128L256 256L128 128Z"/>
<glyph unicode="&#xE00D;" glyph-name="arrow-3-down-left" horiz-adv-x="512" d="M32 -32L352 -32L448 64L224 64L480 320L384 416L128 160L128 384L32 288Z"/>
<glyph unicode="&#xE00E;" glyph-name="arrow-3-down-right" horiz-adv-x="512" d="M480 -32L480 288L384 384L384 160L128 416L32 320L288 64L64.001 64L160.001 -32Z"/>
<glyph unicode="&#x2193;" glyph-name="arrow-3-down" horiz-adv-x="512" d="M512 191.744l-90.752 90.624c0 0 -50.88 -50.88 -100.992 -100.992V448h-128.368v-266.624l-101.12 101.12L0 191.744L256 -64 L512 191.744z"/>
<glyph unicode="&#x2190;" glyph-name="arrow-3-left" horiz-adv-x="512" d="M255.744 -64l90.752 90.752c0 0 -50.88 50.88 -100.992 100.992H512v128.368H245.504l100.992 101.12L255.744 448L0 192 L255.744 -64z"/>
<glyph unicode="&#x2192;" glyph-name="arrow-3-right" horiz-adv-x="512" d="M256.256 448l-90.688 -90.752c0 0 50.88 -50.88 100.992 -100.992H0v-128.432h266.56l-101.056 -101.056L256.256 -64L512 192 L256.256 448z"/>
<glyph unicode="&#xE00F;" glyph-name="arrow-3-up-left" horiz-adv-x="512" d="M32 416L32 96L128 0L128 224L384 -32L480 64L224 320L448 320L352 416Z"/>
<glyph unicode="&#xE010;" glyph-name="arrow-3-up-right" horiz-adv-x="512" d="M480 416L160 416L64 320L288 320L32 64L128 -32L384 224L384 0L480 96Z"/>
<glyph unicode="&#x2191;" glyph-name="arrow-3-up" horiz-adv-x="512" d="M0 192.256l90.752 -90.624c0 0 50.912 50.88 101.024 100.992V-64h128.336V202.624l101.12 -101.12L512 192.256L256.032 448 L0 192.256z"/>
<glyph unicode="&#xE011;" glyph-name="arrow-4-down" horiz-adv-x="512" d="M512 192.032C512 333.376 397.376 448 256 448S0 333.376 0 192.032C0 50.624 114.624 -64 256 -64S512 50.624 512 192.032zM128 191.536h96V320h64v-128.464h95.504L256 64L128 191.536z"/>
<glyph unicode="&#xE012;" glyph-name="arrow-4-left" horiz-adv-x="512" d="M256 -64c141.376 0 256 114.624 256 255.968C512 333.376 397.376 448 256 448S0 333.376 0 191.968 C0 50.624 114.624 -64 256 -64zM255.504 320v-96.032H384V160h-128.496v-95.504L128 191.968L255.504 320z"/>
<glyph unicode="&#xE013;" glyph-name="arrow-4-right" horiz-adv-x="512" d="M256 448C114.624 448 0 333.376 0 192s114.624 -256 256 -256s256 114.624 256 256S397.376 448 256 448zM256.496 64v96H128v64h128.496 V319.504L384 192L256.496 64z"/>
<glyph unicode="&#xE014;" glyph-name="arrow-4-up" horiz-adv-x="512" d="M0 192c0 -141.376 114.624 -256 256.064 -256C397.376 -64 512 50.624 512 192c0 141.408 -114.624 256 -255.936 256 C114.624 448 0 333.408 0 192zM384 192.496h-96V64h-64v128.496H128.496l127.568 127.536L384 192.496z"/>
<glyph unicode="&#xE015;" glyph-name="arrow-5-down" horiz-adv-x="512" d="M512 256L416 352L256 192L96 352L0 256L256 0.00099999999997635Z"/>
<glyph unicode="&#xE016;" glyph-name="arrow-5-first" horiz-adv-x="512" d="M416 352L320 448L64 192L320 -64L416 32L256 192ZM0 448L0 -64L64 -64L64 192L64 448Z"/>
<glyph unicode="&#xE017;" glyph-name="arrow-5-last" horiz-adv-x="512" d="M96 32L192 -64L448 192L192 448L96 352L256 192ZM512 -64L512 448L448 448L448 192L448 -64Z"/>
<glyph unicode="&#xE018;" glyph-name="arrow-5-left" horiz-adv-x="512" d="M320 -64L416 32L256 192L416 352L320 448L64 192Z"/>
<glyph unicode="&#xE019;" glyph-name="arrow-5-right" horiz-adv-x="512" d="M192 448L96 352L256 192L96 32L192 -64L448 192Z"/>
<glyph unicode="&#xE01A;" glyph-name="arrow-5-up" horiz-adv-x="512" d="M0 128L96 32L256 192L416 32L512 128L256.001 384Z"/>
<glyph unicode="&#xE01B;" glyph-name="arrow-down-left" horiz-adv-x="512" d="M384 -64L256 64L512 320L384 448L128 191.999L0 319.999L0 -64Z"/>
<glyph unicode="&#xE01C;" glyph-name="arrow-down-right" horiz-adv-x="512" d="M512 320L384 192L128 448L0 320L256.001 64L128.001 -64L512 -64Z"/>
<glyph unicode="&#xE01D;" glyph-name="arrow-down" horiz-adv-x="512" d="M256 -64L512 192L352 192L352 447.999L160 448L160 192L0 192Z"/>
<glyph unicode="&#xE01E;" glyph-name="arrow-left" horiz-adv-x="512" d="M0 192L256 -64L256 96L511.999 96L512 288L256 288L256 448Z"/>
<glyph unicode="&#xE01F;" glyph-name="arrow-right" horiz-adv-x="512" d="M512 192L256 448L256 288L0.001 288L0 96L256 96L256 -64Z"/>
<glyph unicode="&#xE020;" glyph-name="arrow-up-left" horiz-adv-x="512" d="M0 64L128 192L384 -64L512 64L256 320L383.999 448L0 448Z"/>
<glyph unicode="&#xE021;" glyph-name="arrow-up-right" horiz-adv-x="512" d="M128 448L256.001 320L0 64L128 -64L384 192L512 64.001L512 448Z"/>
<glyph unicode="&#xE022;" glyph-name="arrow-up" horiz-adv-x="512" d="M256.001 448L0 192L160 192L160 -63.999L352 -64L352 192L512 192Z"/>
<glyph unicode="@" glyph-name="at" horiz-adv-x="512" d="M477.504 64C499.44 101.68 512 145.248 512 192c0 141.376 -114.624 256 -256 256S0 333.376 0 192s114.624 -256 256 -256 c70.688 0 134.688 28.624 180.992 75.008L391.68 56.32C356.944 21.504 308.944 0 256 0C150.128 0 64 86.128 64 192S150.128 384 256 384s192 -86.128 192 -192 c0 -22.752 -4.368 -44.496 -11.68 -64.752L435.808 128H384V319.312h-128c-70.688 0 -128 -57.312 -128 -128s57.312 -128 128 -128c29.376 0 56.128 10.32 77.744 26.944 C345.376 74.752 363.12 64 384 64H477.504zM320 223.872v-32.56c0 -35.312 -28.752 -64 -64 -64s-64 28.688 -64 64s28.752 64 64 64h64V223.872z"/>
<glyph unicode="&#xE023;" glyph-name="award" horiz-adv-x="256" d="M128 128c-22.56 0 -43.872 4.624 -64 11.776V-64l64 64l64 -64V139.776C171.872 132.624 150.56 128 128 128zM0 320C0 390.692448 57.307552 448 128 448C198.692448 448 256 390.692448 256 320C256 249.307552 198.692448 192 128 192C57.307552 192 0 249.307552 0 320Z"/>
<glyph unicode="&#xE024;" glyph-name="backspace" horiz-adv-x="512" d="M160 352L0 192l160 -160h352V352H160zM480 64H173.255l-128 128l128 128H480V64zM288 96L352 160L416 96L448 128L384 192L448 256L416 288L352 224L288 288L256 256L320 192L256 128Z"/>
<glyph unicode="&#xE025;" glyph-name="baidu" horiz-adv-x="512" d="M136.774 257.025c3.037 -43.458 -20.515 -80.513 -52.628 -82.771c-32.102 -2.253 -60.598 31.149 -63.638 74.619 c-3.038 43.458 20.515 80.52 52.628 82.775C105.243 333.897 133.739 300.489 136.774 257.025zM357.91 437.188 c-31.195 7.958 -65.186 -19.819 -75.916 -62.041c-10.762 -42.221 5.814 -82.897 37.008 -90.855c31.184 -7.953 65.191 19.817 75.922 62.04 C408.898 401.286 365.383 435.29 357.91 437.188zM431.039 294.877c-32.809 -0.488 -58.844 -31.694 -58.123 -80.034 c0.715 -48.334 27.855 -70.37 60.699 -69.882c32.793 0.489 58.84 23.307 58.127 71.66C490.795 279.532 438.895 294.988 431.039 294.877 zM193.313 447.834c-31.22 0 -56.529 -34.995 -56.529 -78.146c0 -43.152 25.309 -78.128 56.529 -78.128c31.223 0 56.536 34.976 56.536 78.128 C249.85 412.839 224.536 447.834 193.313 447.834zM186.087 205.148c-18.036 -25.903 -38.487 -51.189 -78.178 -84.32 c-39.7 -33.131 -56.538 -56.005 -56.538 -89.729c0 -33.719 19.249 -89.728 73.977 -89.728c54.73 0 81.191 12.05 124.497 12.05 s72.183 -16.867 126.903 -16.867c54.736 0 77.592 51.793 77.592 85.513c0 33.725 -9.498 52.814 -53.348 91.305 c-28.094 24.688 -51.904 44.792 -89.195 96.586c-18.441 25.608 -39.699 28.903 -61.947 28.903 C227.593 238.862 204.137 231.035 186.087 205.148z"/>
<glyph unicode="&#xE026;" glyph-name="bars" horiz-adv-x="512" d="M384 448l128 0l0 -512l-128 0ZM192 320l128 0l0 -384l-128 0ZM0 192l128 0l0 -256l-128 0Z"/>
<glyph unicode="&#xE027;" glyph-name="basket" horiz-adv-x="512" d="M451.343 256c-11.469 42.225 -32.685 80.356 -61.388 109.631c-37.262 38.006 -85.006 58.937 -134.436 58.937 c-49.049 0 -96.596 -21.079 -133.884 -59.353C93.116 335.941 71.887 297.956 60.212 256H0v-64h32l32 -256h384l32 256h32v64H451.343zM155.302 332.418c28.364 29.115 63.956 45.149 100.218 45.149c36.7 0 72.524 -15.925 100.875 -44.841 C376.717 312 392.421 285.548 402.278 256H109.373C119.383 285.345 135.101 311.683 155.302 332.418zM160 0H96v64h64V0zM160 128H96v64h64V128zM288 0h-64v64h64V0zM288 128h-64v64h64V128zM416 0h-64v64h64V0zM416 128h-64v64h64V128z"/>
<glyph unicode="&#xE028;" glyph-name="beaker" horiz-adv-x="512" d="M478.145 45.759L320 266.269V416h16c8.8 0 16 7.2 16 16s-7.2 16 -16 16H176c-8.8 0 -16 -7.2 -16 -16s7.2 -16 16 -16h16v-149.731 L33.856 45.759C-2.365 -14.608 25.6 -64 96 -64h320C486.4 -64 514.365 -14.608 478.145 45.759zM108.5 96.5L224 257.467V416h64 v-158.533L404.5 96.5H108.5z"/>
<glyph unicode="&#xE029;" glyph-name="bell" horiz-adv-x="512" d="M385.356 234.944C321.93 376.64 288.966 430.444 185.328 428.222c-36.907 -0.79 -28.042 27.751 -56.182 16.92 c-28.123 -10.835 -3.992 -26.682 -32.757 -51.188c-80.735 -68.789 -73.298 -132.441 -35.853 -284.13 c15.781 -63.884 -38.026 -67.025 -16.732 -128.961c15.537 -45.164 130.126 -64.059 251.029 -17.489 c120.896 46.568 197.215 139.017 181.674 184.169C455.207 209.48 412.078 175.285 385.356 234.944zM281.708 1.533 c-107.973 -41.595 -196.721 -17.122 -200.469 -6.255c-6.459 18.758 34.859 81.321 158.304 128.876 c123.45 47.556 192.337 29.92 199.54 8.974C443.338 120.754 389.692 43.127 281.708 1.533zM247.006 102.446 c-56.453 -21.747 -95.685 -46.625 -121.065 -69.021c17.863 -16.851 51.347 -20.963 84.718 -8.11c42.486 16.362 68.565 53.924 58.251 83.899 c-0.12 0.36 -0.305 0.682 -0.436 1.037C261.505 107.867 254.362 105.277 247.006 102.446z"/>
<glyph unicode="&#xE02A;" glyph-name="binoculars" horiz-adv-x="512" d="M224.5 384.41h-96.667V448H224.5V384.41zM0.444 94.038l0.29 -17.095v-124.27c0 -8.912 7.265 -16.176 16.172 -16.176h126.273 c9.057 0 16.321 7.264 16.321 16.176V159.836h15.306h1.208c9.198 0 15.486 7.41 15.486 16.664v175h-127L0.444 94.038zM383.834 448 H288.5v-63.59h95.334V448zM447.943 351.5h-127v-175c0 -9.254 6.288 -16.664 15.486 -16.664h1.207h15.307v-207.162 c0 -8.912 7.264 -16.176 16.32 -16.176h126.273c8.907 0 16.172 7.264 16.172 16.176v124.27L512 94.038L447.943 351.5zM223.834 191.5 H288.5v160h-64.666V191.5z"/>
<glyph unicode="&#xE02B;" glyph-name="blogger-2" horiz-adv-x="512" d="M184 240h72c13.199 0 24 10.8 24 24s-10.801 24 -24 24h-72c-13.2 0 -24 -10.8 -24 -24S170.801 240 184 240zM328 144H184c-13.2 0 -24 -10.8 -24 -24c0 -13.199 10.8 -24 24 -24h144c13.199 0 24 10.801 24 24C352 133.2 341.199 144 328 144zM426.674 448H85.325C38.202 448 0 409.791 0 362.659v-341.318C0 -25.792 38.202 -64 85.325 -64h341.348 c47.125 0 85.324 38.208 85.324 85.341L512 362.659C512 409.791 473.798 448 426.674 448zM448 123.951 C448 55.456 392.257 0 323.278 0H188.869C119.941 0 64 55.456 64 123.951V260c0.048 68.5 55.94 124 124.869 124h62.934 C320.779 384 376.002 332.5 376 264c0.901 -12.847 12.461 -24 25.646 -24h0.449h21.078C436.959 240 448 225.533 448 211.844V123.951z"/>
<glyph unicode="&#xE02C;" glyph-name="blogger" horiz-adv-x="512" d="M478.898 256h-28.103h-0.6c-17.583 0 -32.994 14.871 -34.195 32l0 0C416.002 379.334 342.371 448 250.405 448h-83.912 C74.587 448 0.065 374 0 282.667v-181.399C0 9.941 74.587 -64 166.492 -64h179.21C437.676 -64 512 9.941 512 101.268V218.459 C512 236.71 497.28 256 478.898 256zM160 320h96c17.6 0 32 -14.4 32 -32s-14.4 -32 -32 -32h-96c-17.6 0 -32 14.4 -32 32S142.4 320 160 320 zM352 64H160c-17.6 0 -32 14.4 -32 32s14.4 32 32 32h192c17.6 0 32 -14.4 32 -32S369.6 64 352 64z"/>
<glyph unicode="&#xE02D;" glyph-name="bluetooth" horiz-adv-x="512" d="M390.397 293.431L236.804 447.018v-202.475l-84.477 84.48l-30.725 -30.727L227.62 192.003L121.603 85.702l30.725 -30.726 l84.477 84.49v-202.484l153.594 153.589L288.967 192.003L390.397 293.431zM329.018 293.228l-49.003 -49.009l-0.04 98.047 L329.018 293.228zM329.018 90.93l-49.043 -49.039l0.04 98.045L329.018 90.93z"/>
<glyph unicode="&#xE02E;" glyph-name="bolt-2" horiz-adv-x="512" d="M170.137 -64L170.137 -64L240.123 188.992L118.963 181.641L211 425.894L348.276 448L246.964 265.374L384.398 283.079Z"/>
<glyph unicode="&#x2301;" glyph-name="bolt" horiz-adv-x="512" d="M512 448L128 192l96 -64L0 -64l384 192l-96 64L512 448z"/>
<glyph unicode="&#xE02F;" glyph-name="book-2" horiz-adv-x="512" d="M256 320c0 0 -64 64 -256 64v-384c194 0 256 -64 256 -64s62 64 256 64V384C320 384 256 320 256 320zM64 320 c81.344 -6.816 131.248 -25.632 160 -40.88v-257.744c-28.752 15.185 -78.656 34 -160 40.88V320zM448 62.256 c-81.377 -6.88 -131.28 -25.68 -160 -40.88V279.12c28.72 15.248 78.623 34.064 160 40.88V62.256z"/>
<glyph unicode="&#xE030;" glyph-name="book-3" horiz-adv-x="512" d="M479.409 382.501V-64h-359.26c-48.19 0 -86.558 33.488 -86.558 83.305V399.006C33.591 425.942 55.633 448 82.57 448H416v-384.448 H114.149c-32.891 0 -48.595 -14.448 -49.133 -45.944c0.538 -31.589 16.242 -49.209 49.133 -49.209h334.397V382.501H479.409zM108 19.903 v-7.307c0 -6.681 6.716 -12.097 15 -12.097h293V32H123C114.716 32 108 26.584 108 19.903z"/>
<glyph unicode="&#xE031;" glyph-name="book" horiz-adv-x="448" d="M64 448C28.656 448 0 419.376 0 384v-384c0 -35.376 28.656 -64 64 -64h384V448H64zM384 0H128V384h63.744v-128.624l64 64l64.496 -64.496V384 H384V0z"/>
<glyph unicode="&#xE032;" glyph-name="bookmark" horiz-adv-x="512" d="M96 448L96 -64L256 96L416 -64L416 448Z"/>
<glyph unicode="&#xE033;" glyph-name="box" horiz-adv-x="512" d="M0 256l512 0l0 -320l-512 0ZM288 320L512 320L448 448L288 448ZM224 448L64 448L0 320L224 320Z"/>
<glyph unicode="&#xE034;" glyph-name="brush" horiz-adv-x="512" d="M192 64c0 35.376 -28.688 64 -64 64c-35.376 0 -64 -28.624 -64 -64v-0.128c0 -47.312 -25.744 -88.56 -64 -110.688l0.256 -0.192 C19.008 -57.808 40.752 -64 64 -64C134.688 -64 192 -6.688 192 64L192 64zM493.248 429.248c-24.992 24.992 -65.504 24.992 -90.496 0L160.752 187.248c44.128 -11.808 78.752 -46.368 90.496 -90.56 L493.248 338.752C518.256 363.744 518.256 404.256 493.248 429.248z"/>
<glyph unicode="&#xE035;" glyph-name="calc" horiz-adv-x="512" d="M383.5 448.5h-255c-17.673 0 -32 -14.327 -32 -32V-32c0 -17.673 14.327 -32 32 -32h255c17.673 0 32 14.327 32 32V416.5 C415.5 434.173 401.173 448.5 383.5 448.5zM128.5 384.5h255v-64h-255V384.5zM191.969 -0.014999999999986h-63.616v63.222h63.616V-0.014999999999986zM191.969 96.002h-63.616v63.222h63.616V96.002zM191.969 192.02h-63.616v63.221h63.616V192.02zM287.591 0.38099999999997H224.37 v63.616h63.221V0.38099999999997zM287.591 96.397H224.37v63.616h63.221V96.397zM287.591 192.415H224.37v63.616h63.221V192.415zM383.607 0.77600000000001h-63.221v63.221h63.221V0.77600000000001zM383.607 96.793h-63.221v63.221h63.221V96.793zM383.607 192.81h-63.221 v63.221h63.221V192.81zM288.47 341.023h62.96v-7.817h-62.96V341.023z"/>
<glyph unicode="&#xE036;" glyph-name="calendar-stroke" horiz-adv-x="512" d="M512 -64L0 -64L0 384L64 384L64 0L448 0L448 384L512 384L512 -64ZM96 256l64 0l0 -64l-64 0ZM224 255.872l64 0l0 -64l-64 0ZM352 256l64 0l0 -64l-64 0ZM96 128l64 0l0 -64l-64 0ZM224 128l64 0l0 -64l-64 0ZM352 64L352 128L416 128ZM128 352V416c0 17.68 14.32 32 32 32s32 -14.32 32 -32v-64c0 -17.68 -14.32 -32 -32 -32S128 334.32 128 352zM320 352V416c0 17.68 14.32 32 32 32s32 -14.32 32 -32v-64c0 -17.68 -14.32 -32 -32 -32S320 334.32 320 352z"/>
<glyph unicode="&#xE037;" glyph-name="calendar" horiz-adv-x="512" d="M416 384v-32.752c0 -35.376 -28.624 -64 -64 -64s-64 28.624 -64 64V384h-64v-32.752c0 -35.376 -28.624 -64 -64 -64s-64 28.624 -64 64V384H0v-448 h512V384H416zM160 0H96v64h64V0zM160 128H96v64h64V128zM288 0h-64v64h64V0zM288 127.872h-64v64h64V127.872zM352 0v64h64L352 0zM416 128h-64v64h64 V128zM128 352V416c0 17.68 14.32 32 32 32s32 -14.32 32 -32v-64c0 -17.68 -14.32 -32 -32 -32S128 334.32 128 352zM320 352V416c0 17.68 14.32 32 32 32s32 -14.32 32 -32v-64c0 -17.68 -14.32 -32 -32 -32S320 334.32 320 352z"/>
<glyph unicode="&#xE038;" glyph-name="camera" horiz-adv-x="512" d="M192 160.5C192 195.79393925 220.20606075 224 255.5 224C289.79393925 224 318 195.79393925 318 160.5C318 126.20606075 289.79393925 98 255.5 98C220.20606075 98 192 126.20606075 192 160.5ZM460.5 319.748h-61.352c-8.438 0 -17.523 6.545 -20.189 14.548l-15.857 47.591c-2.675 8.003 -11.751 14.548 -20.188 14.548 H169.087c-8.438 0 -17.524 -6.545 -20.19 -14.548l-15.857 -47.591c-2.675 -8.003 -11.752 -14.548 -20.19 -14.548H51.5 c-28.119 0 -51.125 -23.006 -51.125 -51.125v-217.062c0 -28.118 23.006 -51.125 51.125 -51.125h409c28.119 0 51.125 23.007 51.125 51.125 V268.623C511.625 296.742 488.619 319.748 460.5 319.748zM255.5 32.5c-70.692 0 -128 57.309 -128 128c0 70.692 57.308 128 128 128 c70.692 0 128 -57.308 128 -128C383.5 89.809 326.192 32.5 255.5 32.5zM479.5 256.5h-64v32h64V256.5z"/>
<glyph unicode="&#xE039;" glyph-name="cart-2" horiz-adv-x="512" d="M462.705 224.625H178.236L144.16 384.179h366.412L462.705 224.625zM462.705 192.715v-63.822H198.444h-54.846L92.538 384.179H0V448h79.776h50.858l54.254 -255.285H462.705zM223.375 96.982 c26.441 0 47.866 -21.424 47.866 -47.866s-21.425 -47.866 -47.866 -47.866c-26.442 0 -47.866 21.424 -47.866 47.866 S196.933 96.982 223.375 96.982zM382.929 96.982c26.44 0 47.866 -21.424 47.866 -47.866s-21.426 -47.866 -47.866 -47.866 c-26.442 0 -47.866 21.424 -47.866 47.866S356.486 96.982 382.929 96.982z"/>
<glyph unicode="&#xE03A;" glyph-name="cart" horiz-adv-x="512" d="M465.307 128.054h-265.37H144.86L91.426 380.498H0V447.5h80.771h51.071l11.46 -67.002h367.913L465.307 128.054zM175.903 320.321l25.536 -128.179h214.143l21.028 128.179H175.903zM224.971 96.009c26.544 0 48.066 -21.514 48.066 -48.065 c0 -26.553 -21.522 -48.067 -48.066 -48.067c-26.545 0 -48.067 21.516 -48.067 48.067C176.904 74.495 198.428 96.009 224.971 96.009zM385.194 96.009c26.537 0 48.067 -21.514 48.067 -48.065c0 -26.553 -21.53 -48.067 -48.067 -48.067s-48.066 21.516 -48.066 48.067 S358.657 96.009 385.194 96.009z"/>
<glyph unicode="&#xE03B;" glyph-name="case" horiz-adv-x="512" d="M464 288H352V352c0 17.6 -14.4 32 -32 32H192c-17.602 0 -32 -14.4 -32 -32v-64H48c-26.4 0 -48 -21.6 -48 -48v-224c0 -26.4 21.6 -48 48 -48 h416c26.398 0 48 21.6 48 48V240C512 266.4 490.401 288 464 288zM192 351.943c0.016 0.02 0.037 0.041 0.058 0.057h127.887 c0.021 -0.018 0.04 -0.038 0.058 -0.057V288H192V351.943z"/>
<glyph unicode="&#xE03C;" glyph-name="cc" horiz-adv-x="512" d="M252.578 448.411C111.202 446.525 -1.872 330.389 0.024 189.013c1.885 -141.365 118.022 -254.45 259.398 -252.553 c141.365 1.884 254.45 118.021 252.555 259.396C510.091 337.232 393.934 450.307 252.578 448.411zM258.703 -9.654 C147.087 -11.146 55.4 78.127 53.91 189.742C52.42 301.347 141.692 393.035 253.297 394.524 c111.615 1.49 203.294 -87.771 204.794 -199.387C459.58 83.522 370.308 -8.154 258.703 -9.654zM193.359 149.064 c-10.812 0 -19.001 3.938 -24.542 11.834c-5.552 7.885 -8.312 18.396 -8.312 31.542c0 28.906 10.948 43.365 32.855 43.365 c4.375 0 9.125 -1.459 14.229 -4.375c5.104 -2.928 9.417 -8.042 12.928 -15.334l32.854 17.084c-13.136 23.656 -34.907 35.49 -65.282 35.49 c-20.74 0 -37.886 -6.865 -51.458 -20.594c-13.583 -13.73 -20.386 -32.271 -20.386 -55.636c0 -23.948 6.729 -42.646 20.156 -56.083 c13.427 -13.438 31.115 -20.146 53.022 -20.146c13.719 0 26.281 3.438 37.666 10.292c11.386 6.865 20.303 16.281 26.73 28.261 l-30.24 15.333C217.734 156.075 207.661 149.064 193.359 149.064zM334.86 149.064c-10.812 0 -18.99 3.938 -24.531 11.834 c-5.553 7.885 -8.324 18.396 -8.324 31.542c0 28.906 10.949 43.365 32.855 43.365c4.666 0 9.562 -1.459 14.666 -4.375 c5.115 -2.928 9.428 -8.042 12.938 -15.334l32.407 17.084c-12.854 23.656 -34.459 35.49 -64.834 35.49 c-20.739 0 -37.896 -6.865 -51.479 -20.594c-13.573 -13.73 -20.354 -32.271 -20.354 -55.636c0 -23.948 6.636 -42.646 19.927 -56.083 c13.281 -13.438 31.031 -20.146 53.23 -20.146c13.427 0 25.844 3.438 37.229 10.292c11.386 6.865 20.438 16.281 27.167 28.261 l-30.667 15.333C359.245 156.075 349.162 149.064 334.86 149.064z"/>
<glyph unicode="&#xE03D;" glyph-name="cd" horiz-adv-x="512" d="M256 448C114.624 448 0 333.376 0 192s114.624 -256 256 -256s256 114.624 256 256S397.376 448 256 448zM256.496 129.056 c-35.008 0 -63.44 28.368 -63.44 63.44c0 35.12 28.432 63.504 63.44 63.504C291.632 256 320 227.632 320 192.496 C320 157.44 291.632 129.056 256.496 129.056z"/>
<glyph unicode="&#xE03E;" glyph-name="chart-down-2" horiz-adv-x="512" d="M32 30.896l32 0l0 -62.896l-32 0ZM64 319.998c1.831 0 3.623 0.162 5.37 0.458l93.041 -116.394c-1.55 -3.758 -2.411 -7.874 -2.411 -12.192 c0 -17.673 14.326 -32 32 -32s32 14.327 32 32c0 1.492 -0.11 2.957 -0.308 4.395l83.212 62.409c3.999 -1.796 8.428 -2.804 13.096 -2.804 c1.835 0 3.632 0.163 5.383 0.459l93.023 -116.279c-1.548 -3.756 -2.406 -7.867 -2.406 -12.181c0 -17.673 14.326 -32 32 -32s32 14.327 32 32 s-14.326 32 -32 32c-1.835 0 -3.632 -0.163 -5.383 -0.46l-93.023 116.28c1.548 3.755 2.406 7.867 2.406 12.18c0 17.673 -14.326 32 -32 32 s-32 -14.327 -32 -32c0 -1.492 0.11 -2.957 0.308 -4.394l-83.213 -62.409c-3.998 1.796 -8.428 2.803 -13.095 2.803 c-1.831 0 -3.623 -0.162 -5.37 -0.458L93.589 339.807C95.14 343.565 96 347.682 96 352c0 17.673 -14.326 32 -32 32S32 369.673 32 352 C32 334.326 46.326 319.998 64 319.998zM448 -32L448 30.896L416 30.896L416 -32L320 -32L320 30.896L288 30.896L288 -32L192 -32L192 30.896L160 30.896L160 -32L64 -32L64 -33.104L32 -33.104L32 -32L0 -32L0 -64L512 -64L512 -32Z"/>
<glyph unicode="&#xE03F;" glyph-name="chart-down" horiz-adv-x="512" d="M32 288l64 0l0 -352l-64 0ZM160 192l64 0l0 -256l-64 0ZM352 256L288 256L288 32L256 32L320 -64L384 32L352 32ZM416 96l64 0l0 -160l-64 0Z"/>
<glyph unicode="&#xE040;" glyph-name="chart-up-2" horiz-adv-x="512" d="M512 -32v-32H0v32h32v63h32v-63h96v63h32v-63h96v63h32v-63h96v63h32v-63H512zM64 95.87c17.673 0 32 14.327 32 32 c0 4.318 -0.86 8.435 -2.411 12.193l93.041 116.394c1.747 -0.295 3.539 -0.458 5.37 -0.458c4.667 0 9.096 1.007 13.095 2.804 l83.213 -62.41C288.11 194.957 288 193.492 288 192c0 -17.674 14.327 -32 32 -32s32 14.326 32 32c0 4.313 -0.858 8.425 -2.406 12.18 l93.023 116.279c1.751 -0.296 3.548 -0.459 5.383 -0.459c17.673 0 32 14.327 32 32s-14.327 32 -32 32s-32 -14.327 -32 -32 c0 -4.313 0.858 -8.425 2.406 -12.18l-93.023 -116.279C323.632 223.837 321.835 224 320 224c-4.667 0 -9.097 -1.007 -13.095 -2.804 l-83.213 62.409C223.89 285.042 224 286.508 224 288c0 17.673 -14.327 32 -32 32s-32 -14.327 -32 -32c0 -4.318 0.86 -8.434 2.411 -12.192 L69.369 159.413c-1.747 0.295 -3.539 0.457 -5.369 0.457c-17.673 0 -32 -14.327 -32 -32S46.327 95.87 64 95.87z"/>
<glyph unicode="&#xE041;" glyph-name="chart-up" horiz-adv-x="512" d="M32 96h64v-160H32V96zM160 -64h64V160h-64V-64zM416 288v-352h64V288H416zM256 192h32v-256h64V192h32l-64 96L256 192z"/>
<glyph unicode="&#x25D5;" glyph-name="chart" horiz-adv-x="512" d="M219.84 137.632l-160.128 160c-79.632 -92.064 -79.632 -227.936 0 -320L219.84 137.632zM318.624 381.472v-234.336L154.336 -18.56c37.248 -27.808 82.496 -45.44 131.152 -45.44 C411.248 -64 512 36.624 512 160.944C512 273.872 428.256 365.376 318.624 381.472zM255.968 191.744V448C186.224 443.68 123.216 416.992 72.336 375.408L255.968 191.744z"/>
<glyph unicode="&#xE042;" glyph-name="chat-stroke" horiz-adv-x="512" d="M415.632 252.592c-0.432 -22.192 -5.376 -43.12 -14.128 -62.224C447.632 182.688 448 145.12 448 128 c0 -15.872 0 -64 -63.936 -64H320c-41.68 0 -79.008 -20.128 -102.368 -51.248C202.128 24.496 192 43.12 192 64v64c0 12.656 2.256 22.624 5.744 30.848 C195.872 159.184 194 160 192 160H131.248c-2.064 -9.904 -3.184 -20.496 -3.184 -32v-64c0 -70.688 57.248 -128 127.936 -128c0 35.376 28.624 64 64 64h64.064 C448 0 512 36 512 128C512 206.288 467.504 242.56 415.632 252.592zM256 384c23.872 0 64 -8.32 64 -64v-64c0 -20.944 -10.128 -39.536 -25.632 -51.216C271.008 235.84 233.744 256 192 256H128.064 C64 256 64 304.16 64 320c0 19.12 0 64 64.064 64H256 M256 448H128.064C64 448 0 414 0 320c0 -92 64 -128 128.064 -128H192c35.376 0 64 -28.688 64 -64 c70.688 0 128.064 57.312 128.064 128V320C384.064 408.336 320 448 256 448L256 448z"/>
<glyph unicode="&#xE043;" glyph-name="chat" horiz-adv-x="512" d="M383.936 256c0 -70.688 -57.248 -128 -127.936 -128c0 35.312 -28.688 64 -64 64H127.936C64 192 0 228 0 320 c0 94 64 128 127.936 128H256c64 0 127.936 -39.664 127.936 -128V256zM192 256 M192 256 M415.68 252.592C413.808 166 343.008 96 256 96h-32v32c0 17.664 -14.368 32 -32 32H131.184 c-2 -9.904 -3.248 -20.496 -3.248 -32v-64c0 -70.688 57.376 -128 128.064 -128c0 35.376 28.688 64 64 64h63.936C448 0 512 36 512 128 C512 206.288 467.44 242.56 415.68 252.592z"/>
<glyph unicode="&#xE044;" glyph-name="check-2" horiz-adv-x="512" d="M501.747 416.171c-157.85 -96.777 -272.387 -218.881 -323.85 -280.157L62.5 223.5L0 192.292l224 -223.878 c37.48 96.003 143.058 281.632 288 414.945L501.747 416.171z"/>
<glyph unicode="&#x2714;" glyph-name="check-3" horiz-adv-x="512" d="M256 448C114.624 448 0 333.376 0 192s114.624 -256 256 -256s256 114.624 256 256S397.376 448 256 448zM216.32 73.872 L98.528 191.68l45.248 45.248l72.528 -72.56l153.872 153.872l45.248 -45.248L216.32 73.872z"/>
<glyph unicode="&#x2713;" glyph-name="check" horiz-adv-x="512" d="M191.056 -31L0 160.072l91.12 91.12l99.936 -99.937L420.88 381.064l91.12 -91.12L191.056 -31z"/>
<glyph unicode="&#xE045;" glyph-name="chrome" horiz-adv-x="512" d="M160 192C160 245.019336 202.980664 288 256 288C309.019336 288 352 245.019336 352 192C352 138.980664 309.019336 96 256 96C202.980664 96 160 138.980664 160 192ZM256 320h221.743C433.479 396.517 350.754 448 256 448C180.148 448 112.013 415 65.136 362.586l71.603 -124.02 C155.364 286.232 201.737 320 256 320zM256 64c-48.051 0 -89.91 26.481 -111.799 65.643L34.277 320.035C12.481 282.372 0 238.645 0 192 c0 -123.45 87.384 -226.483 203.67 -250.639l71.642 124.088C269.014 64.496 262.564 64 256 64zM493.372 288H340.653C367.231 264.546 384 230.233 384 192c0 -23.934 -6.575 -46.329 -18.009 -65.489L256 -64 c141.385 0 256 114.615 256 256C512 225.952 505.375 258.352 493.372 288z"/>
<glyph unicode="&#xE046;" glyph-name="clef-2" horiz-adv-x="512" d="M406.079 300.794c-43.525 61.105 -39.44 17.957 -81.604 139.842L279.886 448l-49.609 -366.475 c-111.816 63.979 -182.336 -1.734 -164.492 -84.443c9.46 -43.856 80.716 -85.137 150.9 -44.39c33.171 19.945 43.836 52.11 48.07 74.919 l35.438 271.926c126.445 -111.487 86.071 -178.946 59.925 -256.622C413.867 65.082 498.058 162.859 406.079 300.794z"/>
<glyph unicode="&#xE047;" glyph-name="clef" horiz-adv-x="384" d="M384.272 122.771c0 0 0 -48.976 0 -69.927c0 -20.95 -27.402 -69.925 -77.373 -69.925c-48.357 0 -77.374 27.933 -77.374 71.646 c0 40.576 43.048 64.58 90.476 67.821V317.218c-43.161 -17.359 -102.481 -39.018 -159.752 -52.715v-211.659h-0.5 c0 -15.547 0 -35.109 0 -46.479c0 -20.95 -32.401 -69.88 -82.374 -69.88C29.015 -63.516 0 -35.582 0 8.132c0 42.1 46.444 66.366 96 68.057 V252.915v75.368v11.791C181.972 360.934 311.018 409.816 384.003 448c0 -17.59 0 -33.659 0 -47.616v-55.686v-221.927H384.272z"/>
<glyph unicode="&#xE048;" glyph-name="clipboard" horiz-adv-x="512" d="M351.5 384H320V416c0 17.6 -14.4 32 -32 32h-64c-17.603 0 -32 -14.4 -32 -32v-32h-32.5v-64h192V384zM288 384h-64V415.943 c0.017 0.019 0.036 0.039 0.057 0.057h63.884c0.021 -0.018 0.041 -0.038 0.06 -0.057L288 384L288 384zM432 384h-47.5v-32H416v-384H96V352h31.5V384H80c-8.801 0 -16 -7.2 -16 -16v-416c0 -8.8 7.199 -16 16 -16h352c8.8 0 16 7.2 16 16V368 C448 376.8 440.8 384 432 384zM128 256l256 0l0 -32l-256 0ZM128 160l256 0l0 -32l-256 0ZM128 64l256 0l0 -32l-256 0Z"/>
<glyph unicode="&#xE049;" glyph-name="clock" horiz-adv-x="512" d="M256 384c105.872 0 192 -86.128 192 -192s-86.128 -192 -192 -192S64 86.128 64 192S150.128 384 256 384 M256 448 C114.624 448 0 333.376 0 192s114.624 -256 256 -256s256 114.624 256 256S397.376 448 256 448L256 448zM342.752 150.752L288 205.568V320h-64.368v-127.872c0 -9.632 4.432 -17.936 11.12 -23.872l62.752 -62.752 L342.752 150.752z"/>
<glyph unicode="&#xE04A;" glyph-name="cloud-download" horiz-adv-x="512" d="M384 384c-6 0 -11.808 -0.944 -17.632 -1.808C344.064 421.68 302.816 448 256 448 c-47.808 0 -89.088 -26.688 -111.056 -65.568C139.312 383.184 133.712 384 128 384c-70.592 0 -128 -57.44 -128 -128s57.408 -128 128 -128h96v-96h-64l95.968 -96L352 32h-64v96h96 c70.624 0 128 57.44 128 128S454.624 384 384 384zM384 192H128c-35.28 0 -64 28.688 -64 64c0 35.056 31.088 62.192 64.064 63.12 c0.128 -15.056 2.752 -29.936 8 -43.936l59.936 22.496C193.344 304.752 192 312.32 192 320c0 35.312 28.72 64 64 64c20.72 0 39.408 -10.256 51.216 -26.192 C276.32 334.432 256 297.68 256 256h64c0 35.312 28.752 64 64 64s64 -28.688 64 -64S419.248 192 384 192z"/>
<glyph unicode="&#xE04B;" glyph-name="cloud-upload" horiz-adv-x="512" d="M384 384c-6 0 -11.808 -0.992 -17.632 -1.744C344.064 421.632 302.816 448 256 448 c-47.808 0 -89.088 -26.624 -111.056 -65.632C139.312 383.12 133.712 384 128 384c-70.592 0 -128 -57.376 -128 -128s57.408 -128 128 -128h256c70.624 0 128 57.376 128 128 S454.624 384 384 384zM384 192H128c-35.28 0 -64 28.752 -64 64c0 35.12 31.088 62.128 64.064 63.12C128.192 304 130.816 289.248 136.064 275.248l59.936 22.368 C193.344 304.752 192 312.256 192 320c0 35.248 28.72 64 64 64c20.72 0 39.408 -10.256 51.216 -26.256C276.32 334.368 256 297.68 256 256h64 c0 35.248 28.752 64 64 64s64 -28.752 64 -64S419.248 192 384 192zM288.032 32L352 32L256.064 128L160.032 32L224.032 32L224.032 -64L288.032 -64Z"/>
<glyph unicode="&#x2601;" glyph-name="cloud" horiz-adv-x="512" d="M384 288c-6.064 0 -11.809 -0.976 -17.633 -1.776C344.064 325.664 302.816 352 256 352c-47.809 0 -89.057 -26.656 -111.057 -65.6 c-5.632 0.752 -11.264 1.6 -16.943 1.6C57.44 288 0 230.592 0 160c0 -70.624 57.439 -128 128 -128h256c70.56 0 128 57.376 128 128 C512 230.592 454.56 288 384 288zM384 96H128c-35.312 0 -64 28.72 -64 64c0 35.088 31.056 62.16 64.063 63.12 c0.128 -15.088 2.752 -29.904 8 -43.904L196 201.648c-2.688 7.104 -4 14.64 -4 22.352c0 35.28 28.688 64 64 64 c20.688 0 39.439 -10.256 51.184 -26.224C276.32 238.4 256 201.68 256 160h64c0 35.28 28.688 64 64 64c35.312 0 64 -28.72 64 -64 S419.312 96 384 96z"/>
<glyph unicode="&#xE04C;" glyph-name="code" horiz-adv-x="512" d="M2.5 192.004L163.238 352.732L218.024 297.938L112.09 192.004L218.024 86.066L163.238 31.268L2.5 192.004ZM293.487 297.938L348.279 352.734L509.011 192.002L348.279 31.266L293.479 86.064L293.479 86.064L399.423 192.002Z"/>
<glyph unicode="&#xE04D;" glyph-name="coffee" horiz-adv-x="512" d="M241.796 276.761C271.812 322.138 189.292 370.916 246.29 411c-47.413 -3.133 -55.54 -32.142 -43.587 -54.792 C214.05 334.71 241.753 319.719 241.796 276.761zM206.775 289.189c3.423 0.113 6.876 0.196 10.395 0.213c0.189 0.001 0.378 0.001 0.567 0.002 c0.189 0.001 0.377 0.001 0.567 0.002c0.188 0 0.378 0.001 0.565 0.001c0.189 0 0.377 0 0.564 0c5.266 0 10.423 -0.115 15.473 -0.327 c-1.991 13.311 -7.123 23.238 -13.253 31.905c-0.656 0.002 -1.304 0.017 -1.961 0.017c-0.226 0 -0.451 0 -0.676 0s-0.449 0 -0.675 -0.001 c-0.224 -0.001 -0.448 -0.001 -0.674 -0.002c-0.226 0 -0.451 -0.001 -0.677 -0.002c-10.311 -0.054 -20.407 -0.437 -30.252 -1.087 c3.98 -7.214 8.838 -14.286 13.643 -21.276C202.533 295.503 204.694 292.355 206.775 289.189zM214.012 241.504c13.465 38.02 -58.024 75.362 -39.121 125c-39.617 -11.704 -20.3 -56.63 -3.236 -74.846 C183.974 278.504 206.284 272.401 214.012 241.504zM401.592 225.923c0.331 14.829 -0.369 26.305 -1.387 32.746c-1.419 9.058 -7.699 17.537 -17.763 25.134 c-9.937 7.5 -23.586 14.16 -39.958 19.689c-16.219 5.476 -35.167 9.863 -55.938 12.872c-11.344 1.644 -23.274 2.864 -35.626 3.646 c3.335 -10.478 5.006 -21.318 2.29 -32.173c7.817 -0.729 15.33 -1.674 22.466 -2.815c16.965 -2.713 31.968 -6.458 44.508 -10.554 c12.627 -4.125 22.771 -8.61 29.861 -12.747c7.141 -4.166 11.179 -7.973 11.521 -10.687c0.332 -2.745 -2.843 -4.693 -9.174 -9.102 c-6.376 -4.44 -15.966 -9.354 -28.4 -13.966c-12.529 -4.646 -27.936 -8.983 -45.788 -12.201c-17.944 -3.233 -38.295 -5.327 -60.517 -5.456 c-0.16 -0.002 -0.32 -0.003 -0.48 -0.003c-0.161 -0.001 -0.321 -0.001 -0.482 -0.002c-0.161 0 -0.321 0 -0.481 0 c-0.16 0 -0.32 -0.001 -0.479 -0.001c-21.956 0 -42.083 1.927 -59.848 4.987c-17.678 3.043 -32.952 7.199 -45.387 11.682 c-12.345 4.45 -21.879 9.22 -28.229 13.555c-6.305 4.304 -9.48 6.187 -9.171 8.923c0.296 2.735 4.356 6.63 11.577 10.921 c7.169 4.261 17.444 8.904 30.248 13.197c12.711 4.261 27.929 8.18 45.142 11.05c2.857 0.477 5.791 0.912 8.759 1.328 c-0.537 0.524 -1.064 1.058 -1.58 1.608c-6.715 7.169 -12.838 16.98 -16.799 26.919c-0.196 0.493 -0.393 1.004 -0.588 1.523 c-0.217 -0.032 -0.44 -0.06 -0.657 -0.093c-21.059 -3.183 -40.27 -7.76 -56.701 -13.428c-16.593 -5.724 -30.414 -12.583 -40.442 -20.27 c-10.162 -7.786 -16.459 -16.442 -17.786 -25.641c-1.366 -9.291 -1.939 -29.025 0.36 -54.172c2.394 -26.188 7.946 -58.701 19.078 -91.453 c11.698 -34.416 29.535 -69.026 55.869 -95.728c27.342 -27.722 63.143 -46.211 108.373 -46.211c0.103 0 0.204 0 0.305 0 s0.201 0 0.302 0.001c0.101 0 0.201 0 0.302 0.001c0.102 0.001 0.202 0.001 0.306 0.002c45.474 0.296 81.228 19.104 108.355 47.122 c15.771 16.289 23.375 28.458 33.393 48.703c18.987 -0.439 32.897 0.171 44.446 0.171c44.459 0 73.5 52.041 73.5 96.5 C478.892 204.891 444.565 224.24 401.592 225.923zM405.362 96.086c-7.295 -0.701 -19.92 -0.701 -30.824 -0.814 c1.38 3.76 2.698 7.524 3.929 11.289c9.384 28.696 18.515 63.178 21.057 87.416c26.222 -0.605 47.368 -6.107 47.368 -32.472 C446.892 134.761 431.982 98.645 405.362 96.086z"/>
<glyph unicode="&#x2699;" glyph-name="cog" horiz-adv-x="512" d="M512 160.496v64l-76.496 31.872c-2.128 6 -4.368 11.808 -7.12 17.504l30.88 76.88L414 396 l-76.192 -31.376c-5.808 2.816 -11.744 5.184 -17.872 7.376L287.504 448h-64l-31.632 -75.744c-6.368 -2.256 -12.496 -4.624 -18.56 -7.504l-76.064 30.56 L52 350.064l31.008 -75.376C80 268.496 77.568 262.192 75.248 255.68L0 223.504v-64l75.312 -31.376c2.32 -6.496 4.816 -12.816 7.808 -19.008 l-30.432 -75.872l45.248 -45.248l75.568 31.12c6.064 -2.88 12.256 -5.184 18.624 -7.376L224.496 -64h64l31.68 76.128 c6.064 2.256 12.064 4.624 17.808 7.376l76.752 -30.752l45.248 45.248l-31.504 76.368c2.688 5.744 4.88 11.568 7.008 17.504L512 160.496zM255.504 96c-52.992 0 -96 43.008 -96 96s43.008 96 96 96s96 -43.008 96 -96S308.496 96 255.504 96z"/>
<glyph unicode="&#xE04E;" glyph-name="cogs" horiz-adv-x="512" d="M359.163 126.333c1.98 0.672 3.354 2.915 3.052 4.983l-4.422 30.219c-0.304 2.069 -2.261 3.824 -4.35 3.899l-33.608 1.202 c-2.089 0.077 -4.559 1.672 -5.485 3.547l-12.566 25.4c-0.929 1.875 -0.698 4.806 0.511 6.513l19.435 27.444 c1.209 1.708 1.002 4.328 -0.46 5.826l-21.34 21.849c-1.462 1.497 -4.077 1.766 -5.813 0.597l-27.895 -18.78 c-1.734 -1.169 -4.67 -1.33 -6.521 -0.357l-25.096 13.163c-1.852 0.972 -3.388 3.478 -3.415 5.569l-0.41 33.627 c-0.026 2.091 -1.733 4.091 -3.795 4.441l-30.106 5.135c-2.061 0.353 -4.335 -0.969 -5.052 -2.932l-11.53 -31.591 c-0.717 -1.965 -2.998 -3.821 -5.067 -4.125l-28.039 -4.1c-2.071 -0.303 -4.786 0.821 -6.036 2.498l-20.095 26.963 c-1.25 1.676 -3.806 2.291 -5.681 1.364l-27.376 -13.542c-1.874 -0.928 -2.938 -3.331 -2.363 -5.343l9.24 -32.334 c0.576 -2.012 -0.179 -4.853 -1.676 -6.313L72.93 211.354c-1.496 -1.462 -4.354 -2.149 -6.351 -1.527L34.472 219.83 c-1.997 0.622 -4.425 -0.384 -5.397 -2.236l-14.187 -27.048c-0.972 -1.852 -0.419 -4.421 1.228 -5.711l26.482 -20.732 c1.647 -1.287 2.707 -4.029 2.355 -6.092l-4.763 -27.933c-0.352 -2.062 -2.26 -4.297 -4.242 -4.968L4.094 114.329 c-1.98 -0.671 -3.354 -2.914 -3.051 -4.98l4.418 -30.219c0.304 -2.069 2.262 -3.824 4.352 -3.898l33.609 -1.205 c2.09 -0.074 4.559 -1.669 5.487 -3.544l12.565 -25.4c0.928 -1.874 0.698 -4.804 -0.511 -6.51l-19.435 -27.447 c-1.208 -1.708 -1.002 -4.328 0.46 -5.822L50 -2.901c1.462 -1.498 3.854 -3.947 5.314 -5.441l5.353 -5.481 c1.461 -1.494 3.255 -3.333 3.988 -4.081c0.73 -0.75 2.749 -0.407 4.484 0.76l27.896 18.78c1.735 1.17 4.671 1.329 6.523 0.356 l25.096 -13.161c1.852 -0.973 3.388 -3.478 3.414 -5.569l0.409 -33.626c0.026 -2.092 1.733 -4.091 3.795 -4.443l30.107 -5.135 c2.062 -0.352 4.336 0.969 5.053 2.934l11.529 31.589c0.718 1.965 2.998 3.82 5.067 4.126l28.039 4.101 c2.069 0.305 4.785 -0.821 6.035 -2.497l20.097 -26.966c1.25 -1.678 3.806 -2.291 5.681 -1.362l27.373 13.543 c1.875 0.928 2.939 3.332 2.364 5.343l-9.24 32.335c-0.574 2.011 0.179 4.854 1.676 6.313l20.274 19.8 c1.498 1.461 4.354 2.147 6.353 1.523l32.104 -10c1.997 -0.622 4.427 0.384 5.397 2.235l14.187 27.049 c0.973 1.851 0.419 4.424 -1.229 5.711l-26.479 20.728c-1.647 1.29 -2.706 4.032 -2.354 6.093l4.761 27.934 c0.352 2.062 2.26 4.298 4.242 4.969L359.163 126.333zM181.628 55.302c-35.913 0 -65.028 29.116 -65.028 65.032 c0 35.913 29.115 65.027 65.028 65.027c35.914 0 65.027 -29.114 65.027 -65.027C246.655 84.418 217.542 55.302 181.628 55.302zM482.709 331.007c0.025 2.091 1.532 4.652 3.348 5.689l23.249 13.285c1.816 1.037 2.666 3.475 1.889 5.416l-9.75 24.349 c-0.777 1.942 -3.075 3.12 -5.105 2.617l-25.993 -6.435c-2.029 -0.501 -4.888 0.312 -6.35 1.808L445.69 396.482 c-1.463 1.497 -2.207 4.37 -1.657 6.39l7.048 25.832c0.549 2.018 -0.571 4.342 -2.495 5.166L424.474 444.192 c-1.922 0.823 -4.379 0.031 -5.458 -1.759l-13.831 -22.93c-1.079 -1.791 -3.675 -3.236 -5.767 -3.211l-26.201 0.31 c-2.09 0.024 -4.65 1.531 -5.688 3.347l-13.284 23.25c-1.037 1.815 -3.476 2.665 -5.417 1.887l-24.347 -9.749 c-1.941 -0.777 -3.122 -3.075 -2.618 -5.104l6.436 -25.994c0.5 -2.03 -0.313 -4.887 -1.809 -6.35l-18.744 -18.306 c-1.496 -1.462 -4.37 -2.207 -6.388 -1.656l-25.837 7.047c-2.018 0.551 -4.342 -0.572 -5.164 -2.495l-10.323 -24.113 c-0.824 -1.923 -0.032 -4.38 1.76 -5.458l22.927 -13.831c1.792 -1.079 3.236 -3.673 3.212 -5.766l-0.308 -26.199 c-0.026 -2.091 -1.532 -4.651 -3.349 -5.688l-23.249 -13.284c-1.816 -1.036 -2.665 -3.475 -1.889 -5.417l9.751 -24.35 c0.777 -1.942 3.074 -3.119 5.105 -2.616l25.99 6.434c2.031 0.502 4.887 -0.311 6.35 -1.807l18.309 -18.747 c1.461 -1.495 2.204 -4.37 1.656 -6.389l-7.047 -25.832c-0.551 -2.018 0.572 -4.343 2.496 -5.165l24.112 -10.324 c1.922 -0.823 4.379 -0.031 5.457 1.759l13.83 22.929c1.08 1.791 3.677 3.236 5.768 3.211l26.199 -0.309 c2.092 -0.025 4.651 -1.53 5.689 -3.346l13.282 -23.252c1.04 -1.815 3.477 -2.666 5.417 -1.888l24.35 9.75 c1.942 0.777 3.12 3.075 2.618 5.105l-6.434 25.993c-0.503 2.03 0.312 4.888 1.808 6.349l18.743 18.307 c1.497 1.462 4.371 2.208 6.389 1.657l25.834 -7.047c2.02 -0.55 4.343 0.573 5.165 2.495l10.325 24.111 c0.822 1.924 0.029 4.38 -1.761 5.46l-22.928 13.83c-1.791 1.081 -3.237 3.675 -3.212 5.766L482.709 331.007zM385.166 282.96 c-19.937 0 -36.098 16.162 -36.098 36.098c0 19.938 16.161 36.1 36.098 36.1c19.938 0 36.099 -16.161 36.101 -36.1 C421.265 299.122 405.104 282.96 385.166 282.96z"/>
<glyph unicode="&#xE04F;" glyph-name="command" horiz-adv-x="512" d="M347.935232 226.7904c0.00256 0 0.224768 -0.001024 0.224768 -0.001024v0.339968l34.304 -0.013824v0.131584c9.728 0.527872 19.31264 2.712576 28.253184 6.567424 c10.300928 4.425728 19.414016 10.519552 27.13088 18.233856c7.709184 7.710208 13.83168 16.774144 18.269184 27.078144C460.584448 289.501184 462.848 300.534784 462.848 312.07168 v0.918528l-0.004096 0.0128c-0.109568 11.408896 -2.343936 22.295552 -6.682624 32.508416c-4.414464 10.394112 -10.424832 19.610112 -17.991168 27.540992 c-7.599104 7.967744 -16.625152 14.266368 -26.949632 18.82624c-10.366976 4.586496 -21.507072 6.923264 -33.233408 6.936064c-0.040448 0 -0.078336 0.03328 -0.114176 0.03328h-0.01536 c-11.759616 0 -22.95552 -2.336256 -33.44128 -6.909952c-10.43456 -4.553216 -19.579392 -10.847744 -27.291648 -18.80832c-7.686144 -7.921664 -13.825024 -17.131008 -18.360832 -27.524096 c-4.598784 -10.49856 -6.893568 -21.723648 -6.893568 -33.482752L291.862016 283.136h-0.134144c-0.01536 -3.218432 -2.294272 -5.874688 -5.325312 -6.509568l-60.054016 0.014336 c-2.582016 0.564224 -4.608512 2.593792 -5.134848 5.18656l0.01024 31.440384l-0.011264 0.024064c-0.137728 11.341312 -2.433536 22.171136 -6.869504 32.32768 c-4.530688 10.393088 -10.657792 19.603968 -18.345472 27.532288c-7.71328 7.958016 -16.84224 14.23872 -27.270656 18.802688c-10.450944 4.56704 -21.626368 6.867456 -33.321984 6.889984 C135.32928 398.848 135.168 398.849536 135.168 398.849536v0.003584c-11.776 0 -22.94016 -2.300416 -33.4336 -6.87872c-10.43456 -4.551168 -19.56096 -10.83648 -27.277312 -18.797056 c-7.68512 -7.913984 -13.810688 -17.121792 -18.3552 -27.519488c-4.567552 -10.446336 -6.897664 -21.60896 -6.921216 -33.31584C49.18016 312.277504 49.152 312.2432 49.152 312.218624V312.32 h0.068096c0 0 0 -0.083968 -0.003584 -0.09472c-0.004608 -11.75552 2.292224 -22.949888 6.887424 -33.335296c4.538368 -10.301952 10.693632 -19.321856 18.414592 -26.922496 c7.708672 -7.59808 16.837632 -13.643264 27.242496 -18.066432c10.489344 -4.476928 21.68064 -6.707712 33.435648 -6.707712L165.376 227.179008V226.816c0 0 0.136704 0 0.140288 0 c3.70176 0 6.70464 -2.957824 6.723072 -6.656h0.150528l-0.01536 -57.856h-0.135168c-0.013824 -2.758144 -1.688576 -5.102592 -4.073984 -6.116864l-32.814592 0.009728 c-0.130048 0.004096 -0.250368 0 -0.351232 0c-11.685888 -0.010752 -22.821376 -2.247168 -33.26208 -6.688768c-10.411008 -4.422144 -19.538944 -10.44736 -27.254272 -18.046464 c-7.727104 -7.590912 -13.884928 -16.603136 -18.432 -26.897408c-4.586496 -10.358272 -6.884352 -21.48864 -6.898688 -33.207808c-0.001024 -0.102912 0 -0.138752 0 -0.146944 c-0.00768 -11.75552 2.284032 -22.960128 6.875648 -33.45664c4.530688 -10.39616 10.681344 -19.519488 18.397696 -27.230208c7.704064 -7.718912 16.825856 -13.896192 27.224064 -18.445824 c10.496 -4.591104 21.71136 -6.923776 33.475072 -6.923776h2.955776l0.027136 0.083968c10.681856 0.349184 20.8896 2.642432 30.499328 6.838272 c10.405376 4.544 19.52256 10.69056 27.238912 18.405888c7.716352 7.71072 13.871104 16.831488 18.41408 27.23072c4.59008 10.500096 6.892544 21.710848 6.892544 33.484288 L221.162496 99.84H221.184c0 0 0 0.055808 0 0.05888c0 3.702272 2.957824 6.705664 6.656 6.724096v0.407552l57.344 -0.019968V106.496c0 0 -0.181248 0 -0.179712 0 c3.701248 0 6.705664 -2.958336 6.723584 -6.656h0.082944L291.84 71.172096v-0.03584c0 -11.750912 2.271232 -22.9504 6.858752 -33.444352 c4.533248 -10.397696 10.673152 -19.529216 18.382848 -27.236352c7.710208 -7.7184 16.820736 -13.869568 27.227648 -18.413056c10.461184 -4.573184 21.633536 -6.873088 33.360384 -6.889984 h0.060928c0.015872 0 0.033792 -0.002048 0.049664 -0.002048l7.727104 -0.003584l-0.161792 0.326144c9.002496 0.774144 17.618944 2.961408 25.762816 6.554624 c10.293248 4.54912 19.31008 10.696704 26.907648 18.417152c7.605248 7.7184 13.66272 16.840704 18.094592 27.247616C460.580352 48.1792 462.848 59.372032 462.848 71.12448 v0.785408l-0.036864 0.007168c-0.09728 11.2512 -2.34752 22.016 -6.709248 32.155136c-4.425728 10.304512 -10.530304 19.378176 -18.241536 27.087872 c-7.712768 7.716352 -16.782848 13.813248 -27.082752 18.252288c-10.375168 4.473344 -21.41184 6.715392 -32.949248 6.715392l-32.534016 0.011264 c-1.964544 0.792064 -3.460608 2.479616 -3.983872 4.563456l0.014848 61.389312C342.240256 224.815104 344.928256 226.7904 347.935232 226.7904zM121.066496 279.51872 c-4.514304 1.952768 -8.375296 4.522496 -11.705344 7.753216c-3.314688 3.214848 -5.848064 6.944256 -7.771648 11.299328c-1.89696 4.289536 -2.773504 8.76544 -2.773504 13.589504v0.011264 c0 5.336064 0.907776 10.110976 2.797056 14.485504c1.946112 4.5184 4.509696 8.468992 7.769088 11.935232c3.177984 3.365888 6.956544 5.888512 11.509248 7.82336 c4.52608 1.910784 9.238016 2.768896 14.322176 2.768896h0.018432c5.333504 0 10.112 -0.878592 14.483456 -2.768896c4.45952 -1.928704 8.369664 -4.53376 11.823616 -7.99232 c3.450368 -3.45344 6.103552 -7.338496 8.039936 -11.807744c1.878528 -4.370432 2.845184 -9.137664 2.845184 -14.47936L172.41088 283.136h-0.17152 c-0.015872 -3.171328 -2.229248 -5.792768 -5.193728 -6.476288l-31.837184 0.006656C130.123776 276.671488 125.45792 277.61664 121.066496 279.51872zM169.483264 56.851968 c-1.941504 -4.571136 -4.591104 -8.521728 -8.026624 -11.95776c-3.452928 -3.452928 -7.366656 -6.103552 -11.82976 -8.033792c-4.372992 -1.888256 -9.150976 -2.838528 -14.482944 -2.847744 c-5.08672 0.009728 -9.821184 0.96 -14.347776 2.871808c-4.561408 1.929216 -8.3456 4.544 -11.523072 7.92064c-3.244032 3.451392 -5.73184 7.440384 -7.68512 12.066816 c-1.842176 4.352 -2.771456 8.879616 -2.771456 13.726208v0.634368c0 4.826112 0.845824 9.367552 2.75968 13.799424c1.930752 4.46208 4.480512 8.236544 7.7696 11.429376 c3.338752 3.227136 7.182848 5.797376 11.69664 7.750656c4.206592 1.817088 8.656384 2.766848 13.504 2.843136L165.376 107.0464V106.496c0 0 0.136704 0 0.140288 0 c3.70176 0 6.705152 -2.958336 6.723072 -6.656h0.125952l-0.008192 -28.631552C172.351488 66.123264 171.395584 61.390848 169.483264 56.851968zM291.727872 162.304 c-0.0128 -2.788864 -1.725952 -5.154816 -4.154368 -6.151168l-62.346752 0.018432c-2.404864 1.03936 -4.042752 3.513856 -4.042752 6.3232c0 0.002048 0 -0.190464 0 -0.190464h-0.007168 l0.013312 57.893888c0.070656 3.64032 2.996224 6.572544 6.649344 6.590976v0.374272l57.344 -0.019968V226.816c0 0 -0.181248 0 -0.179712 0c3.701248 0 6.706176 -2.958336 6.723584 -6.656 h0.1152l-0.016384 -57.856H291.727872zM344.20736 326.583808c1.95072 4.52608 4.539392 8.470016 7.799296 11.93728c3.172864 3.365888 6.963712 5.927424 11.524096 7.858176 c4.3392 1.83552 8.864768 2.805248 13.71904 2.805248h0.63488c4.791808 0 9.229824 -0.933888 13.51424 -2.912768c4.355584 -2.034688 8.097792 -4.708864 11.329024 -8.131584 c3.25376 -3.475456 5.8368 -7.402496 7.792128 -11.927552c1.895936 -4.39552 2.841088 -9.056256 2.848256 -14.13632c-0.00768 -4.824064 -0.9472 -9.30816 -2.842112 -13.590016 c-1.942528 -4.390912 -4.496384 -8.140288 -7.709696 -11.346944c-3.226112 -3.219456 -6.972928 -5.830144 -11.359744 -7.766528c-4.291584 -1.892352 -8.756224 -2.891776 -13.576704 -2.891776 h-0.018432l-31.289344 0.072192c-2.40896 0.460288 -4.441088 2.122752 -5.228544 4.34688l0.009728 31.192576C341.353984 317.425152 342.31552 322.220544 344.20736 326.583808zM391.417344 104.150016c4.376064 -1.946624 8.12544 -4.502016 11.346432 -7.71584c3.18976 -3.20256 5.742592 -6.97856 7.691264 -11.474944 c1.90208 -4.42624 2.843648 -9.183232 2.843648 -13.791232h0.003584c-0.005632 -5.12 -0.96 -9.760768 -2.857984 -14.1568c-1.953792 -4.519936 -4.544512 -8.477184 -7.80032 -11.939328 c-3.229696 -3.428864 -6.97344 -6.130176 -11.334144 -8.156672c-4.283392 -1.987072 -8.717312 -2.95936 -13.512704 -2.966016c-5.090304 0.006656 -9.818112 0.953344 -14.354944 2.86976 c-4.562432 1.92512 -8.344576 4.544 -11.510272 7.919104c-3.250688 3.447808 -5.834752 7.4368 -7.780864 12.068864c-1.912832 4.52096 -2.859008 9.22112 -2.865664 14.278656 l0.010752 30.793728c0.843776 2.699776 3.359232 4.617216 6.35904 4.617216c-0.00256 0 -0.007168 0 -0.007168 0v0.4992l30.16704 -0.010752 C382.642176 106.983936 387.115008 106.041344 391.417344 104.150016zM227.871232 226.7904c-0.010752 0 -0.020992 -0.001536 -0.031232 -0.001536v-0.000512C227.84 226.78784 227.87328 226.788864 227.871232 226.7904zM227.871232 106.624512c-0.010752 0 -0.020992 -0.001536 -0.031232 -0.001536v-0.001024C227.84 106.621952 227.87328 106.622976 227.871232 106.624512zM172.240896 99.808256c0 0.010752 -0.001536 0.020992 -0.001536 0.031744h-0.000512C172.238848 99.84 172.239872 99.806208 172.240896 99.808256zM172.240896 220.128256c0 0.010752 -0.001536 0.021504 -0.001536 0.031744h-0.000512C172.238848 220.16 172.239872 220.126208 172.240896 220.128256zM172.238848 162.304L172.238848 162.304c0.000512 0.010752 0.002048 0.020992 0.002048 0.031744C172.239872 162.338816 172.238848 162.304 172.238848 162.304zM172.238848 283.136L172.238848 283.136c0.000512 0.010752 0.002048 0.021504 0.002048 0.032256C172.239872 283.170304 172.238848 283.136 172.238848 283.136zM291.726848 283.136h0.001024c0 0.010752 0.001536 0.021504 0.001536 0.032256C291.729408 283.170304 291.726848 283.136 291.726848 283.136zM291.729408 220.127744c0 0.010752 -0.001536 0.021504 -0.001536 0.032256h-0.001024C291.726848 220.16 291.729408 220.125696 291.729408 220.127744zM291.729408 99.807232c0 0.010752 -0.001536 0.022016 -0.001536 0.032768h-0.001024C291.726848 99.84 291.729408 99.805184 291.729408 99.807232zM291.726848 162.304h0.001024c0 0.010752 0.001536 0.020992 0.001536 0.031744C291.729408 162.338816 291.726848 162.304 291.726848 162.304z"/>
<glyph unicode="&#xE050;" glyph-name="comment-2-stroke" horiz-adv-x="448" d="M224 384c88.256 0 160 -71.744 160 -160s-71.744 -160 -160 -160c-11.312 0 -23.568 1.68 -37.44 5.056l-27.248 6.752 L135.936 60.32l-7.312 -4.816l0.064 10.944l0.128 26.432l-18.56 18.816C80.432 141.936 64 181.808 64 224C64 312.256 135.744 384 224 384 M224 448 C100.32 448 0 347.68 0 224c0 -61.312 24.752 -116.752 64.688 -157.248L64 -64l107.248 70.944C188.256 2.752 205.744 0 224 0c123.68 0 224 100.32 224 224 S347.68 448 224 448L224 448z"/>
<glyph unicode="&#xE051;" glyph-name="comment-2" horiz-adv-x="448" d="M224 448C100.32 448 0 347.68 0 224c0 -61.312 24.752 -116.752 64.688 -157.248L64 -64l107.248 70.944 C188.256 2.752 205.744 0 224 0c123.68 0 224 100.32 224 224S347.68 448 224 448z"/>
<glyph unicode="&#xE052;" glyph-name="comment-stroke" horiz-adv-x="512" d="M320 320c70.623 0 128 -57.376 128 -128s-57.377 -128 -128 -128H192c-41.744 0 -78.944 -20.128 -102.32 -51.248 C74.128 24.496 64 43.12 64 64V224c0 52.944 43.12 96 96 96H320 M320 384H160C71.632 384 0 312.368 0 224v-160 c0 -70.688 57.376 -128 128 -128c0 35.376 28.688 64 64 64h128c106.063 0 192 86 192 192S426.064 384 320 384L320 384z"/>
<glyph unicode="&#xE053;" glyph-name="comment" horiz-adv-x="512" d="M0 64c0 -70.688 57.376 -128 128 -128c0 35.376 28.688 64 64 64h128c106.063 0 192 86 192 192S426.064 384 320 384H160 C71.632 384 0 312.368 0 224V64z"/>
<glyph unicode="&#xE054;" glyph-name="cone-2" horiz-adv-x="512" d="M256 -1.834c180.5 0 159.5 33.582 159.5 33.582l-13.03 43.334C355.916 68.459 306.576 65 256 65 c-50.537 0 -99.84 3.453 -146.362 10.066L96.5 31.748C96.5 31.748 75.5 -1.834 256 -1.834zM384.468 134.951l-17.224 57.283c-36.567 1.006 -73.707 1.52 -111.244 1.52c-37.394 0 -74.393 -0.51 -110.824 -1.509 l-17.387 -57.327C168.71 129.71 211.818 127 256 127C300.275 127 343.471 129.722 384.468 134.951zM310.545 380.797L299.5 417.53C294.575 433.763 285.173 448 267.5 448h-22c-17.673 0 -26.639 -13.588 -32 -30.47l-11.15 -36.766 c17.882 1.118 36.032 1.699 54.368 1.699C274.869 382.463 292.838 381.893 310.545 380.797zM348.451 254.734l-18.816 62.576c-23.767 2.08 -48.151 3.153 -72.917 3.153c-25.013 0 -49.64 -1.093 -73.631 -3.213 l-18.956 -62.502c30.327 0.666 60.979 1.007 91.869 1.007C287.087 255.754 317.934 255.409 348.451 254.734zM490.897 0c22 -36.074 -42 -32 -42 -32H256h-9.104H64c0 0 -64 -4.074 -42 32c0 0 -22.81 -18.242 -21 -32c0.886 -6.731 -3.028 -32 63 -32 c51.125 0 152.143 0 182.896 0c5.795 0 9.104 0 9.104 0c32.167 0 141.415 0 192.897 0c66.027 0 62.113 25.269 63 32 C513.708 -18.242 490.897 0 490.897 0z"/>
<glyph unicode="&#xE055;" glyph-name="cone" horiz-adv-x="512" d="M318.84 348.317L170.348 265.705L147.897 184.335L335.325 288.609ZM301.07 412.711C295.5 432.5 280.89 448.189 256 448.189c-24.892 0 -38.5 -14.689 -45.078 -35.478l-23.597 -85.506L306.39 393.446 L301.07 412.711zM480 64.5h-81.373l-18.366 66.554L260.631 64.5h-99.166L365.8 178.176l-18.02 65.305L130.917 122.837L114.818 64.5H33 c-17.673 0 -31.5 -14.327 -31.5 -32s0 -32 0 -32H512c0 0 0 14.327 0 32S497.673 64.5 480 64.5z"/>
<glyph unicode="&#xE056;" glyph-name="contao" horiz-adv-x="512" d="M45.517 144.361c14.279 -66.822 26.253 -130.445 68.038 -176.251H33.895C15.249 -31.89 0 -16.725 0 1.833V382.277 C0 400.827 15.249 416 33.895 416h57.56C77.62 403.488 65.507 389.002 54.807 372.617C9.247 302.794 27.971 226.54 45.517 144.361zM478.114 416h-90.337c21.39 -21.423 39.432 -49.192 53.036 -83.689l-137.337 -29.045c-15.049 28.893 -37.927 52.961 -82.673 43.496 c-24.674 -5.224 -41.063 -19.121 -48.296 -34.303c-8.908 -18.74 -13.309 -39.717 8.024 -139.534c21.299 -99.775 33.895 -117.2 49.67 -130.704 c12.827 -10.905 33.469 -16.99 58.156 -11.753c44.764 9.443 55.829 40.683 57.76 73.175l137.337 29.06 c3.236 -71.196 -18.755 -126.308 -57.568 -164.592h52.228c18.633 0 33.891 15.165 33.891 33.723V382.277 C512.004 400.827 496.746 416 478.114 416z"/>
<glyph unicode="&#xE057;" glyph-name="contrast" horiz-adv-x="512" d="M256 448C114.615 448 0 333.385 0 192s114.615 -256 256 -256s256 114.615 256 256S397.385 448 256 448zM32 192 C32 315.712 132.288 416 256 416v-448C132.288 -32 32 68.288 32 192z"/>
<glyph unicode="&#xE058;" glyph-name="creditcard-2" horiz-adv-x="512" d="M464.39 354.081H47.61c-25.552 0 -46.309 -20.713 -46.309 -46.309v-231.543c0 -25.598 20.757 -46.311 46.309 -46.311h416.78 c25.553 0 46.31 20.713 46.31 46.311V307.772C510.698 333.368 489.942 354.081 464.39 354.081zM464.39 307.772v-45.585H47.61v45.585 H464.39zM47.61 76.229V214.93h416.78v-138.702H47.61zM93.919 180.404h185.234v-23.154H93.919V180.404zM93.919 133.689h78.733 v-23.154H93.919V133.689zM200.419 133.689h78.734v-23.154h-78.734V133.689z"/>
<glyph unicode="&#xE059;" glyph-name="creditcard" horiz-adv-x="512" d="M463.492 368.854H48.508c-25.485 0 -46.107 -23.623 -46.107 -49.107h507.197C509.599 345.232 488.888 368.854 463.492 368.854zM2.401 223.534v-177.427C2.401 20.623 23.023 0 48.508 0h417.385C491.289 0 512 20.623 512 46.107V223.534H2.401zM64.5 31.768L64 64h95.5l0.5 -32.232H64.5zM288 32.768h-95.5V64H288V32.768zM289 96H64v64h225V96zM480 32.768h-63.125 v62.861H480V32.768z"/>
<glyph unicode="&#xE05A;" glyph-name="css3" horiz-adv-x="512" d="M76.194 423.739L59.014 337.776L408.888 337.776L397.946 282.249L47.852 282.249L30.906 196.3L380.748 196.3L361.239 98.268L220.233 51.557L98.033 98.268L106.397 140.789L20.448 140.789L0 37.613L202.113 -39.739L435.116 37.613L512 423.739Z"/>
<glyph unicode="&#x2196;" glyph-name="cursor" horiz-adv-x="512" d="M512 0L288 224L384 320L0 448L128 64.064L224 160.064L448 -64Z"/>
<glyph unicode="&#xE05B;" glyph-name="curved-arrow" horiz-adv-x="512" d="M448 160c0 123.68 -100.32 224 -224 224C100.32 384 0 283.68 0 160c0 88.368 71.632 160 160 160s160 -71.632 160 -160v-32h-64 l128 -128l128 128h-64V160z"/>
<glyph unicode="&#xE05C;" glyph-name="delicious" horiz-adv-x="512" d="M426.688 448H85.343C38.405 448 0 409.592 0 362.654v-341.312C0 -25.623 38.405 -64 85.343 -64h341.345 C473.625 -64 512 -25.624 512 21.342V362.654C512 409.592 473.625 448 426.688 448zM480 21.342c0 -14.167 -5.57 -27.541 -15.685 -37.658 C454.204 -26.43 440.841 -32 426.688 -32H256V192H32V362.654c0 14.154 5.575 27.525 15.698 37.648C57.82 410.425 71.19 416 85.343 416 H256v-224h224V21.342z"/>
<glyph unicode="&#x2298;" glyph-name="denied" horiz-adv-x="512" d="M256 448C114.624 448 0 333.376 0 192s114.624 -256 256 -256s256 114.624 256 256S397.376 448 256 448zM256 384 c41.44 0 79.568 -13.504 110.944 -35.872L99.808 81.12C77.44 112.496 64 150.624 64 192C64 297.872 150.128 384 256 384zM256 0 c-41.44 0 -79.568 13.504 -110.944 35.872L412.192 302.88C434.56 271.504 448 233.376 448 192C448 86.128 361.872 0 256 0z"/>
<glyph unicode="&#xE05D;" glyph-name="deviantart-2" horiz-adv-x="512" d="M117.552 145.044l67.131 16.274l-30.021 62.783C116.316 203.549 111.494 172.691 117.552 145.044zM426.678 448H85.322C38.2 448 0 409.791 0 362.659v-341.318C0 -25.792 38.2 -64 85.322 -64h341.356 C473.8 -64 512 -25.792 512 21.341V362.659C512 409.791 473.8 448 426.678 448zM269.932 142.398l-49.396 89.029 c21.415 3.654 39.902 4.611 55.929 3.674l28.02 -44.756l67.138 16.275c-26.4 25.846 -74.6 50.131 -162.723 34.41 c-1.943 -0.351 -3.846 -0.715 -5.717 -1.077l54.492 -100.917L61.434 85.14c-4.248 6.582 -7.689 13.609 -10.236 21.016 c-12.661 36.716 -2.244 74.416 24.115 104.408c15.982 17.926 38.133 32.82 65.126 43.278l-16.526 34.563 c14.695 4.689 30.567 8.203 47.455 10.457l17.352 -32.138c1.861 0.313 3.733 0.614 5.615 0.896 c52.196 7.88 103.162 8.343 150.221 -2.688l-0.001 -0.011c47.971 -9.46 92.002 -30.434 112.311 -53.945 c4.095 -4.75 7.187 -9.662 9.303 -14.695L269.932 142.398z"/>
<glyph unicode="&#xE05E;" glyph-name="deviantart" horiz-adv-x="512" d="M280.928 244.5c-19.521 1.141 -42.041 -0.024 -68.125 -4.475l60.167 -108.444L512 197.214 c-2.577 6.13 -6.343 12.113 -11.331 17.899c-24.737 28.639 -78.37 54.187 -136.802 65.709l0.001 0.013 c-57.322 13.437 -119.401 12.872 -182.98 3.274c-2.292 -0.344 -4.572 -0.711 -6.84 -1.092l-21.136 39.146 c-20.571 -2.746 -39.904 -7.025 -57.803 -12.737l20.13 -42.099c-32.88 -12.738 -59.861 -30.88 -79.329 -52.716 C3.804 178.079 -8.885 132.157 6.537 87.435c3.102 -9.021 7.294 -17.58 12.468 -25.598l239.034 65.649l-66.375 122.924 c2.279 0.44 4.598 0.884 6.964 1.312c107.341 19.149 166.051 -10.432 198.208 -41.915l-81.779 -19.824L280.928 244.5zM87.361 134.805 c-7.379 33.676 -1.506 71.263 45.202 96.297l36.569 -76.474L87.361 134.805z"/>
<glyph unicode="&#xE05F;" glyph-name="direction" horiz-adv-x="512" d="M271.938 288.814v-32H352.5v-95.5h-80.562V0.5h-31.875V161.314H128.687l-48 48.248l48 47.252h111.375v32H159.5v95.5 h80.562V416.19h31.875v-31.875h111.438l47.938 -47.252l-47.938 -48.249H271.938z"/>
<glyph unicode="&#xE060;" glyph-name="document-add" horiz-adv-x="512" d="M448 64L448 128L384 128L384 64L320 64L320 0L384 0L384 -64L448 -64L448 0L512 0L512 64ZM32 416L320 416L320 320L416 320L416 160L448 160L448 320L320 448L0 448L0 -64L288 -64L288 -32L32 -32Z"/>
<glyph unicode="&#xE061;" glyph-name="document-css" horiz-adv-x="512" d="M352 448H32v-512h448V320L352 448zM448 -32H64V416h288v-96h96V-32zM192 142.277V199.39c0 7.564 3.348 14.718 9.427 20.143c6.08 5.424 14.096 8.413 22.573 8.413v28.555 c-35.2 0 -64 -25.7 -64 -57.111v-42.833c0 -7.886 -7.164 -14.279 -16 -14.279h-16v-28.555h16c8.837 0 16 -6.395 16 -14.279v-42.838 c0 -31.406 28.8 -57.106 64 -57.106v28.556c-8.477 0 -16.494 2.988 -22.573 8.413c-6.079 5.427 -9.427 12.577 -9.427 20.14v57.117 c0 7.885 -7.164 14.276 -16 14.276C184.837 128 192 134.395 192 142.277zM320 113.723v-57.117c0 -7.562 -3.348 -14.713 -9.427 -20.139c-6.079 -5.425 -14.095 -8.412 -22.573 -8.412v-28.557 c35.201 0 64 25.7 64 57.107v42.838c0 7.886 7.164 14.279 16 14.279h16v28.555h-16c-8.836 0 -16 6.395 -16 14.279V199.39 c0 31.412 -28.799 57.111 -64 57.111v-28.555c8.479 0 16.494 -2.989 22.573 -8.415c6.08 -5.424 9.427 -12.578 9.427 -20.142v-57.114 c0 -7.883 7.164 -14.276 16 -14.276C327.164 128 320 121.605 320 113.723z"/>
<glyph unicode="&#xE062;" glyph-name="document-excel" horiz-adv-x="512" d="M352 448H32v-512h448V320L352 448zM448 -32H64V416h288v-96h96V-32zM371.514 256L303.867 256L256.001 185.484L208.131 256L140.487 256L221.568 134.768L130.081 0L261.201 0L261.201 45.788L230.923 45.788L256.001 83.285L311.699 0L381.92 0L290.432 134.768Z"/>
<glyph unicode="&#xE063;" glyph-name="document-openoffice" horiz-adv-x="512" d="M352 448H32v-512h448V320L352 448zM448 -32H64V416h288v-96h96V-32zM345.11 202.159c-30.334 14.326 -68.986 17.21 -97.417 -3.024c34.571 3.302 72.479 -2.419 97.553 -28.562 c24 27.54 62.057 32.703 96.479 29.866C412.981 219.51 375.115 216.951 345.11 202.159zM332.824 135.124c-34.189 0.789 -67.217 -11.586 -95.55 -30.052c-53.588 22.794 -121.368 18.562 -167.001 -19.491 c13.165 0.467 26.003 3.723 39.028 5.396c47.591 4.744 98.294 -7.071 134.256 -39.912c14.886 21.771 35.822 39.121 59.826 49.961 c31.537 15.26 67.08 16.842 101.41 17.26C383.949 132.61 357.485 135.263 332.824 135.124z"/>
<glyph unicode="&#xE064;" glyph-name="document-pdf" horiz-adv-x="512" d="M352 448H32v-512h448V320L352 448zM448 -32H64V416h288v-96h96V-32zM421.006 153.26c-6.824 6.723 -21.957 10.283 -44.986 10.586c-15.589 0.172 -34.351 -1.201 -54.085 -3.964 c-8.837 5.099 -17.945 10.647 -25.094 17.329c-19.231 17.958 -35.284 42.886 -45.288 70.297c0.652 2.56 1.207 4.81 1.724 7.106 c0 0 10.833 61.53 7.965 82.333c-0.395 2.853 -0.637 3.681 -1.404 5.898l-0.941 2.417c-2.947 6.796 -8.724 13.997 -17.782 13.604 l-5.312 0.169l-0.146 0.003c-10.1 0 -18.332 -5.166 -20.493 -12.887c-6.569 -24.217 0.209 -60.446 12.491 -107.369l-3.144 -7.643 c-8.794 -21.438 -19.815 -43.03 -29.539 -62.079l-1.264 -2.477c-10.23 -20.02 -19.512 -37.014 -27.927 -51.411l-8.688 -4.594 c-0.632 -0.334 -15.522 -8.209 -19.014 -10.322c-29.628 -17.69 -49.261 -37.771 -52.518 -53.708c-1.036 -5.085 -0.265 -11.593 5.007 -14.607 l8.403 -4.229c3.645 -1.826 7.489 -2.751 11.427 -2.751c21.102 0 45.6 26.286 79.348 85.183c38.965 12.685 83.327 23.229 122.207 29.045 c29.629 -16.684 66.071 -28.272 89.071 -28.272c4.084 0 7.605 0.39 10.466 1.147c4.411 1.168 8.129 3.684 10.396 7.097 c4.463 6.716 5.367 15.966 4.156 25.438C425.68 147.411 423.435 150.887 421.006 153.26zM105.823 40.977 c3.848 10.521 19.08 31.321 41.602 49.777c1.416 1.148 4.904 4.416 8.097 7.451C131.971 60.643 116.199 45.672 105.823 40.977zM239.217 348.157c6.783 0 10.642 -17.097 10.962 -33.127c0.32 -16.03 -3.429 -27.28 -8.079 -35.604c-3.851 12.324 -5.713 31.75 -5.713 44.452 C236.387 323.878 236.104 348.157 239.217 348.157zM199.426 129.253c4.725 8.458 9.641 17.378 14.665 26.839 c12.246 23.158 19.979 41.278 25.739 56.173c11.455 -20.842 25.722 -38.56 42.493 -52.756c2.092 -1.771 4.309 -3.551 6.637 -5.325 C254.855 147.436 225.378 139.229 199.426 129.253zM414.452 131.174c-2.077 -1.299 -8.027 -2.05 -11.854 -2.05 c-12.353 0 -27.636 5.647 -49.062 14.833c8.233 0.609 15.781 0.919 22.55 0.919c12.391 0 16.06 0.054 28.175 -3.036 S416.529 132.473 414.452 131.174z"/>
<glyph unicode="&#xE065;" glyph-name="document-powerpoint" horiz-adv-x="512" d="M352 448H32v-512h448V320L352 448zM448 -32H64V416h288v-96h96V-32zM96 128l32 0l0 -32l-32 0ZM143.527 128l80.473 0l0 -32l-80 0ZM96 64l32 0l0 -32l-32 0ZM143.527 64l80.473 0l0 -32l-80 0ZM96 192l32 0l0 -32l-32 0ZM143.527 192l80.473 0l0 -32l-80 0ZM335.982 190.925c-43.887 0 -79.463 -35.576 -79.463 -79.462c0 -43.887 35.576 -79.463 79.463 -79.463 c43.886 0 79.462 35.576 79.462 79.463h-79.462V190.925z"/>
<glyph unicode="&#xE066;" glyph-name="document-remove" horiz-adv-x="512" d="M320 64l192 0l0 -64l-192 0ZM32 416L320 416L320 320L416 320L416 160L448 160L448 320L320 448L0 448L0 -64L288 -64L288 -32L32 -32Z"/>
<glyph unicode="&#xE067;" glyph-name="document-word" horiz-adv-x="512" d="M352 448H32v-512h448V320L352 448zM448 -32H64V416h288v-96h96V-32zM319.889 210.054L341.995 210.054L316.489 96.965L283.326 255.97L230.051 255.97L191.494 96.965L162.586 255.97L106.889 255.97L163.435 0.028999999999996L217.854 0.028999999999996L256.001 151.383L290.129 0.028999999999996L340.297 0.028999999999996L405.112 255.97L319.889 255.97Z"/>
<glyph unicode="&#xE06A;" glyph-name="document" horiz-adv-x="512" d="M352 448H32v-512h448V320L352 448zM448 -32H64V416h288v-96h96V-32z"/>
<glyph unicode="&#xE068;" glyph-name="document-xml" horiz-adv-x="512" d="M352 448H32v-512h448V320L352 448zM448 -32H64V416h288v-96h96V-32zM224 160L192 192L96 96L192 0L224 32L160 96ZM288 32L320 0L416 96L320 192L288 160L352 96Z"/>
<glyph unicode="&#xE069;" glyph-name="document-zip" horiz-adv-x="512" d="M352 448H32v-512h448V320L352 448zM448 -32H64V416h288v-96h96V-32zM208 352l48 0l0 -32l-48 0ZM160 320l48 0l0 -32l-48 0ZM208 288l48 0l0 -32l-48 0ZM160 256l48 0l0 -32l-48 0ZM208 224l48 0l0 -32l-48 0ZM160 192l48 0l0 -32l-48 0ZM208 160v-32h-48v-112c0 -8.837 7.163 -16 16 -16h64c8.837 0 16 7.163 16 16V160H208zM240 32h-64v32h64V32z"/>
<glyph unicode="&#xE06B;" glyph-name="documents-2" horiz-adv-x="512" d="M224 256l192 0l0 -32l-192 0ZM224 192l192 0l0 -32l-192 0ZM224 128l192 0l0 -32l-192 0ZM224 64l128 0l0 -32l-128 0ZM480 352h-96V416c0 17.6 -14.4 32 -32 32H32C14.4 448 0 433.6 0 416v-352c0 -17.6 14.4 -32 32 -32h96v-64c0 -17.6 14.4 -32 32 -32h320 c17.6 0 32 14.4 32 32V320C512 337.6 497.6 352 480 352zM128 320v-240H48V400h288v-48H160C142.4 352 128 337.6 128 320zM464 -16H176 V304h288V-16z"/>
<glyph unicode="&#xE06C;" glyph-name="documents" horiz-adv-x="512" d="M448 320H320V384L256 448H0v-384h192v-128h320V256L448 320zM32 96V416h192l64 -64v-32h-96v-224H32zM480 -32H224V288h192l64 -64V-32 z"/>
<glyph unicode="&#x2913;" glyph-name="download-2" horiz-adv-x="384" d="M0 9.12l384 0l0 -73.12l-384 0ZM256 155.44L256 448L128 448L128 155.44L64 155.44L192.192 9.12L320 155.44Z"/>
<glyph unicode="&#xE06D;" glyph-name="download" horiz-adv-x="512" d="M384 318.341h-65.428V448H193.524v-129.659H128L256.542 192L384 318.341zM494.019 143.824l-80.947 56.459h-49.92 l86.462 -68.75h-90.127c-2.582 0 -4.926 -1.353 -6.088 -3.494l-20.779 -58.904H180.457l-20.778 58.904 c-1.152 2.142 -3.506 3.494 -6.088 3.494H63.465l86.47 68.75h-49.93l-80.938 -56.459c-12.048 -7.453 -19.249 -24.639 -16.021 -38.186 l14.272 -81.005C20.557 11.087 34.879 0 49.142 0h414.803c14.262 0 28.584 11.087 31.822 24.634l14.263 81.005 C513.278 119.186 506.067 136.371 494.019 143.824z"/>
<glyph unicode="&#xE06E;" glyph-name="dribbble-2" horiz-adv-x="512" d="M152.278 58.703c28.653 -22.332 64.579 -35.743 103.712 -35.743c21.402 0 41.787 4.127 60.635 11.382 c-8.112 47.492 -19.275 90.176 -33.648 129.563C229.194 147.763 187.377 113.232 152.278 58.703zM271.331 193.356c-4.345 10.217 -8.846 20.301 -13.688 30.118c-47.104 -14.194 -102.88 -21.633 -170.351 -24.745 c-0.092 -2.245 -0.343 -4.458 -0.343 -6.737c0 -41.818 15.272 -80.023 40.435 -109.545C170.295 145.35 218.591 178.114 271.331 193.356zM366.373 319.856c-29.621 25.592 -68.147 41.184 -110.381 41.184c-14.815 0 -29.105 -2.096 -42.804 -5.674 c23.486 -25.859 44.871 -57.31 63.787 -93.384C309.858 275.56 340.037 294.247 366.373 319.856zM179.875 342.786c-44.88 -22.697 -78.278 -64.714 -89.107 -115.217c53.241 2.346 105.22 8.27 152.86 22.664 C225.486 282.649 204.185 313.099 179.875 342.786zM316.069 171.26c13.148 -37.49 24.151 -77.877 32.814 -120.426c40.193 26.506 68.431 69.653 74.782 119.676 C383.473 175.784 347.83 176.166 316.069 171.26zM426.672 448H85.343C38.406 448 0 409.595 0 362.655v-341.311C0 -25.625 38.406 -64 85.343 -64h341.33 C473.612 -64 512 -25.626 512 21.345V362.655C512.002 409.595 473.612 448 426.672 448zM256 -12.8 c-113.109 0 -204.8 91.688 -204.8 204.792C51.2 305.096 142.892 396.8 256 396.8c113.1 0 204.8 -91.705 204.8 -204.808 C460.8 78.889 369.1 -12.8 256 -12.8zM290.373 234.94c5.102 -11.016 9.92 -22.481 14.582 -34.179c37.95 5.875 77.941 4.577 119.687 0.299 c-1.968 37.058 -15.731 70.972 -37.801 97.929C359.254 271.034 327.764 250.217 290.373 234.94z"/>
<glyph unicode="&#xE06F;" glyph-name="dribbble" horiz-adv-x="512" d="M256 -64C114.614 -64 0 50.609 0 191.99C0 333.37 114.615 448 256 448c141.375 0 256 -114.631 256 -256.01S397.375 -64 256 -64zM465.581 165.137c-50.24 6.594 -94.794 7.071 -134.495 0.938c16.435 -46.862 30.188 -97.346 41.018 -150.532 C422.346 48.675 457.642 102.609 465.581 165.137zM331.781 -5.073c-10.141 59.365 -24.095 112.72 -42.061 161.953 c-67.229 -20.177 -119.5 -63.339 -163.374 -131.501c35.816 -27.915 80.724 -44.679 129.641 -44.679 C282.74 -19.3 308.221 -14.142 331.781 -5.073zM44.687 191.99c0 -52.272 19.091 -100.029 50.543 -136.932 c53.639 78.629 114.009 119.584 179.935 138.636c-5.431 12.771 -11.058 25.377 -17.11 37.648 c-58.881 -17.743 -128.601 -27.041 -212.938 -30.931C45 197.606 44.687 194.839 44.687 191.99zM49.46 236.461 c66.551 2.933 131.525 10.337 191.075 28.33c-22.678 40.52 -49.305 78.583 -79.691 115.691 C104.744 352.111 62.996 299.59 49.46 236.461zM255.99 403.3c-18.52 0 -36.382 -2.62 -53.505 -7.093 c29.358 -32.323 56.089 -71.637 79.734 -116.73c41.102 16.973 78.827 40.332 111.747 72.344C356.941 383.811 308.782 403.3 255.99 403.3zM419.551 325.736c-34.483 -34.944 -73.847 -60.965 -120.584 -80.061c6.377 -13.77 12.399 -28.102 18.227 -42.724 c47.438 7.343 97.428 5.721 149.608 0.374C464.343 249.648 447.138 292.04 419.551 325.736z"/>
<glyph unicode="&#xE070;" glyph-name="dropbox" horiz-adv-x="512" d="M414.623 246.239L261.74 339.354l96.414 79.813l152.977 -94.136L414.623 246.239zM357.133 70.232 l146.816 85.953l-88.307 74.696L271.9 143.904L357.133 70.232zM239.246 143.904L95.489 230.881L7.201 156.186l146.829 -85.953 L239.246 143.904zM102.679 82.51v-27.629l146.727 -90.047V135.73l-97.431 -79.818L102.679 82.51zM408.445 82.51l-49.26 -26.604 L261.74 135.73v-170.896l146.705 90.047V82.51zM249.406 339.354L152.99 419.167L0 325.031l96.523 -78.792L249.406 339.354z"/>
<glyph unicode="&#x23CF;" glyph-name="eject" horiz-adv-x="512" d="M0 128L256 448l256 -320H0zM0 64h511.312v-128H0V64z"/>
<glyph unicode="&#xE071;" glyph-name="ember" horiz-adv-x="512" d="M464.801 271.828c-7.461 -27.749 -36.865 -41.616 -36.865 -41.616C360.931 400.473 273.313 448.185 273.313 448.185 c-3.726 -54.617 -69.783 -97.682 -69.783 -97.682l-45.833 24.128c7.4 -38.757 -16.29 -74.959 -16.29 -74.959 C46.472 237.67 83.01 110.137 83.01 110.137l-40.495 18.396c30.133 -218.212 214.32 -191.704 214.32 -191.704 C519.258 -61.32 464.801 271.828 464.801 271.828zM249.798 -22.053c-157.471 1.107 -124.791 200.999 -124.791 200.999 c4.459 -16.65 22.105 -24.973 22.105 -24.973c40.206 102.159 92.778 130.777 92.778 130.777c2.245 -32.746 41.886 -58.615 41.886 -58.615 l27.484 14.489c-4.441 -23.262 9.774 -44.969 9.774 -44.969c56.952 -37.191 35.048 -113.723 35.048 -113.723l24.29 11.031 C360.298 -37.953 249.798 -22.053 249.798 -22.053z"/>
<glyph unicode="&#xE072;" glyph-name="equalizer" horiz-adv-x="512" d="M320 128h-32V416c0 17.68 -14.256 32 -32 32c-17.632 0 -32 -14.32 -32 -32v-288h-32v-64h32v-96c0 -17.68 14.368 -32 32 -32 c17.744 0 32 14.32 32 32v96h32V128zM512 320h-32V416c0 17.68 -14.256 32 -32 32c-17.632 0 -32 -14.32 -32 -32v-96h-32v-64h32v-288c0 -17.68 14.368 -32 32 -32 c17.744 0 32 14.32 32 32V256h32V320zM128 256H96V416c0 17.68 -14.256 32 -32 32C46.368 448 32 433.68 32 416v-160H0v-64h32v-224c0 -17.68 14.368 -32 32 -32 c17.744 0 32 14.32 32 32V192h32V256z"/>
<glyph unicode="&#xE151;" glyph-name="external" horiz-adv-x="512" d="M320 448l64 -64L160 160l32 -32L416 352l64 -64V448H320zM352 64H96V320h128l64 64H32v-384h384V256l-64 -64V64z"/>
<glyph unicode="&#xE073;" glyph-name="eye" horiz-adv-x="512" d="M256 384C114.624 384 0 194.496 0 194.496S114.624 0 256 0s256 194.496 256 194.496S397.376 384 256 384zM256 64 c-70.688 0 -128 57.312 -128 128c0 70.688 57.312 128 128 128c70.688 0 128 -57.312 128 -128C384 121.312 326.688 64 256 64zM192 191.744C192 227.346 220.654 256 256 256c35.346 0 64 -28.654 64 -64.256c0 -35.09 -28.654 -63.744 -64 -63.744 C220.654 128 192 156.654 192 191.744z"/>
<glyph unicode="&#xE074;" glyph-name="eyedropper" horiz-adv-x="512" d="M474.368 229.056c50 49.904 50 130.88 0 180.752c-24.944 24.944 -57.68 37.44 -90.256 37.44 c-32.752 0 -65.472 -12.496 -90.336 -37.44l-9.504 -9.44L236.72 448l-45.088 -45.152l47.6 -47.6L0 115.872v-116L62.88 -64h118.624l238.32 238.496 l46.064 -46.032l45.248 45.12l-46.128 46.032L474.368 229.056zM165.12 10.128c0.752 24.256 -7.632 48.56 -26.064 67.008 c-16.944 16.992 -39.056 25.312 -61.312 26.064L284.4 309.968l90.224 -90.224L165.12 10.128z"/>
<glyph unicode="&#xE075;" glyph-name="facebook-2" horiz-adv-x="512" d="M426.672 448H85.342C38.406 448 0 409.593 0 362.656v-341.313C0 -25.626 38.406 -64 85.342 -64l341.33 0.001 c46.938 0 85.328 38.373 85.328 85.344V362.656C512 409.593 473.609 448 426.672 448zM435.296 192H352v-224h-96V192h-46.263v73.282H256 v47.593C256 377.546 283.896 416 359.935 416h87.622v-79.285h-71.565c-21.241 0.035 -23.876 -11.076 -23.876 -31.756L352 265.282h96 L435.296 192z"/>
<glyph unicode="&#xE076;" glyph-name="facebook" horiz-adv-x="512" d="M287.935 -64H192V192h-64v88.225l64 0.029l-0.104 51.976C191.896 404.206 211.413 448 296.195 448h70.588v-88.242h-44.115 c-33.016 0 -34.603 -12.328 -34.603 -35.342l-0.131 -44.162h79.345l-9.352 -88.225L288 192L287.935 -64z"/>
<glyph unicode="&#xE077;" glyph-name="fan" horiz-adv-x="512" d="M510.254 192.241c0 3.326 -0.29 6.584 -0.837 9.754c-11.971 87.225 -188.083 53.084 -232.008 43.161 c-5.545 2.37 -11.547 3.885 -17.862 4.376c0 0 0 0.001 0 0.002c-1.895 0.165 -3.431 1.79 -3.431 3.773c0 0.288 0.051 0.568 0.113 0.839 c-0.002 0.001 0.004 0.001 0.002 0.002c16.509 36.796 75.81 77.013 75.817 126.236C332.056 441.001 281.643 449.1 259.224 447.852 C257.869 447.947 256.504 448 255.126 448c-5.258 0 -10.346 -0.717 -15.18 -2.054c-84.195 -16.183 -49.261 -196.439 -39.839 -238.773 c-0.79 -3.049 -1.331 -6.199 -1.604 -9.424c-0.272 -1.825 -1.829 -3.229 -3.73 -3.229c-0.136 0 -0.269 0.009 -0.402 0.022 c-36.757 16.6 -76.934 75.742 -126.091 75.747c-57.466 0.007 -67.729 -45.304 -67.578 -69.118C0.241 198.263 0 195.28 0 192.241 c0 -9.443 2.306 -18.347 6.381 -26.184c30.466 -69.825 196.033 -35.398 231.121 -27.229c4.112 -1.34 8.431 -2.225 12.895 -2.593 c1.684 -0.329 2.962 -1.757 3.048 -3.516c-15.767 -37.11 -76.311 -77.652 -76.317 -127.392c-0.008 -61.354 51.649 -68.903 73.639 -67.417 c1.439 -0.108 2.893 -0.165 4.359 -0.165c6.043 0 11.862 0.947 17.325 2.693c81.087 19.873 45.032 195.687 36.277 233.508 c1.652 4.68 2.711 9.639 3.082 14.788c0.13 0.677 0.437 1.286 0.875 1.783c37.999 -13.431 79.451 -77.581 130.649 -77.586 c66.294 -0.01 69.77 60.295 66.906 78.325C510.247 191.584 510.254 191.912 510.254 192.241zM236.181 192.873 c0 10.447 8.5 18.945 18.945 18.945c10.447 0 18.945 -8.498 18.945 -18.945c0 -10.446 -8.498 -18.945 -18.945 -18.945 C244.681 173.928 236.181 182.427 236.181 192.873z"/>
<glyph unicode="&#xE078;" glyph-name="fax" horiz-adv-x="512" d="M64 416L352 416L352 320L448 320L448 160.754L480 142.167L480 320L352 448L32 448L32 141.501L64 160.167ZM504.321 95.921c-30.729 45.335 -142.751 82.156 -247.662 82.593v0.012c-0.268 0 -0.535 -0.012 -0.809 -0.012 c-0.273 0 -0.535 0.012 -0.803 0.012v-0.012c-104.911 -0.437 -216.934 -37.246 -247.665 -82.593c-9.093 -27.073 -7.257 -46.337 -4.298 -62.341 l7.26 -27.107l0.137 -0.536c0.876 -3.212 3.777 -5.592 7.263 -5.592c0.459 0 1.734 0.273 2.176 0.354l116.208 32.578l2.811 0.896 c2.607 1.182 3.853 3.504 3.853 6.56c0 0.169 -0.046 0.331 -0.059 0.506c-0.046 0.728 -0.233 1.409 -0.465 2.072 c0.023 -0.053 0.064 -0.117 0.093 -0.175l-4.684 27.207c-3.085 11.517 -3.708 21.347 -8.229 28.818 c-2.09 3.731 -4.557 8.684 -12.908 15.329c0 0 11.773 -5.211 21.981 -14.819c29.564 10.08 82.5 15.47 117.33 15.562 c34.843 -0.093 87.802 -5.482 117.36 -15.574c10.196 9.62 21.981 14.831 21.981 14.831c-8.357 -6.646 -10.808 -11.593 -12.908 -15.329 c0 0 -0.035 -0.018 -0.041 -0.023c-4.505 -7.472 -5.139 -17.289 -8.218 -28.801l-4.685 -27.201c0.035 0.058 0.07 0.116 0.093 0.168 c-0.232 -0.656 -0.412 -1.344 -0.465 -2.071c-0.012 -0.175 -0.059 -0.343 -0.059 -0.506c0 -3.062 1.246 -5.378 3.858 -6.565l2.812 -0.896 l116.206 -32.567c0.437 -0.081 1.712 -0.36 2.172 -0.36c3.486 0 6.389 2.374 7.258 5.587l0.145 0.541l7.257 27.107 C511.572 49.584 513.412 68.854 504.321 95.921zM96.5 351.5l191.334 0l0 -31.333l-191 0ZM95.833 288.167l320 0l0 -32l-320 0ZM95.833 224.167l320 0l0 -32l-320 0Z"/>
<glyph unicode="&#xE079;" glyph-name="feed-2" horiz-adv-x="512" d="M426.67 448H85.343C38.405 448 0 409.594 0 362.656v-341.314C0 -25.625 38.406 -64 85.344 -64H426.67 c46.938 0 85.33 38.374 85.33 85.342V362.656C512 409.594 473.608 448 426.67 448zM139.472 32.376C115.487 32.376 96 51.722 96 75.69 c0 23.842 19.486 43.406 43.472 43.406c24.079 0 43.53 -19.564 43.53 -43.406C183.001 51.722 163.55 32.376 139.472 32.376zM248.734 32.002c0 40.905 -15.904 79.409 -44.73 108.222c-28.857 28.875 -67.188 44.813 -107.952 44.813V247.63 c118.826 0 215.563 -96.721 215.563 -215.627L248.734 32.002L248.734 32.002zM359.814 32.002 c0 145.531 -118.329 263.97 -263.688 263.97V358.596c180.001 0 326.473 -146.562 326.473 -326.596L359.814 32.002L359.814 32.002z"/>
<glyph unicode="&#xE07A;" glyph-name="feed" horiz-adv-x="512" d="M68.147 72.535c-37.598 0 -68.146 -30.667 -68.146 -68.038c0 -37.577 30.55 -67.901 68.146 -67.901 c37.733 0 68.247 30.324 68.247 67.901C136.393 41.868 105.882 72.535 68.147 72.535zM0 274.035v-98.129c63.892 0 124.057 -24.986 169.307 -70.256c45.192 -45.159 70.141 -105.52 70.141 -169.65h98.561 C338.008 122.41 186.29 274.035 0 274.035zM0 448v-98.178c227.891 0 413.572 -185.667 413.572 -413.822H512C512 218.235 282.18 448 0 448z"/>
<glyph unicode="&#xE07B;" glyph-name="female" horiz-adv-x="512" d="M288 131.204c73.03 14.825 128 79.391 128 156.796C416 376.366 344.365 448 256 448S96 376.366 96 288 c0 -77.405 54.969 -141.971 128 -156.796V64h-96v-64h96v-64h64v64h96v64h-96V131.204zM150.401 288 c0 58.321 47.278 105.601 105.601 105.601c58.321 0 105.6 -47.28 105.6 -105.601c0 -58.32 -47.279 -105.6 -105.601 -105.6 C197.678 182.4 150.401 229.68 150.401 288z"/>
<glyph unicode="&#xE07C;" glyph-name="firefox" horiz-adv-x="512" d="M511.263 280.93l-5.93 -38.04c0 0 -8.477 70.428 -18.866 96.757c-15.923 40.344 -23.007 40.02 -23.054 39.961 c10.665 -27.102 8.731 -41.662 8.731 -41.662s-18.896 51.499 -68.856 67.884c-55.343 18.141 -85.285 13.182 -88.744 12.243 c-0.525 0.004 -1.032 0.005 -1.515 0.005c0.409 -0.031 0.806 -0.073 1.213 -0.106c-0.017 -0.01 -0.045 -0.021 -0.041 -0.026 c0.225 -0.274 61.153 -10.651 71.958 -25.498c0 0 -25.88 0 -51.636 -7.421c-1.164 -0.333 94.762 -11.982 114.373 -107.837 c0 0 -10.515 21.938 -23.52 25.664c8.553 -26.018 6.357 -75.388 -1.788 -99.925c-1.048 -3.156 -2.12 13.641 -18.164 20.875 c5.14 -36.823 -0.308 -95.228 -25.854 -111.316c-1.991 -1.252 16.015 57.655 3.621 34.881c-71.354 -109.401 -155.702 -50.486 -193.624 -24.555 c19.433 -4.231 56.327 0.659 72.657 12.806c0.021 0.015 0.039 0.028 0.059 0.043c17.734 12.126 28.236 20.982 37.667 18.886 c9.437 -2.107 15.719 7.363 8.39 15.765c-7.338 8.419 -25.157 19.989 -49.262 13.683c-17 -4.452 -38.067 -23.261 -70.224 -4.216 c-24.682 14.625 -27.006 26.773 -27.225 35.188c0.609 2.983 1.377 5.768 2.288 8.312c2.841 7.935 11.456 10.329 16.247 12.219 c8.128 -1.396 15.131 -3.931 22.484 -7.703c0.095 2.447 0.126 5.695 -0.009 9.38c0.705 1.401 0.269 5.626 -0.861 10.79 c-0.651 5.154 -1.71 10.487 -3.376 15.346c0.006 0.001 0.01 0.005 0.015 0.007c0.028 0.009 0.054 0.02 0.078 0.035 c0.039 0.022 0.073 0.056 0.104 0.095c0.006 0.01 0.015 0.017 0.022 0.026c0.041 0.062 0.077 0.136 0.099 0.233 c0.51 2.309 6.011 6.762 12.859 11.55c6.136 4.29 13.351 8.848 19.034 12.376c5.03 3.124 8.86 5.441 9.673 6.049 c0.309 0.233 0.679 0.506 1.082 0.818c0.075 0.058 0.15 0.116 0.227 0.177c0.047 0.037 0.095 0.074 0.143 0.113 c2.705 2.154 6.742 6.224 7.589 14.789c0.002 0.021 0.005 0.04 0.006 0.061c0.025 0.252 0.046 0.507 0.065 0.767 c0.014 0.181 0.025 0.363 0.036 0.548c0.007 0.142 0.016 0.283 0.022 0.428c0.015 0.337 0.025 0.682 0.03 1.032 c0 0.02 0.001 0.038 0.002 0.058c0.011 0.829 -0.003 1.693 -0.052 2.601c-0.027 0.507 -0.063 0.965 -0.149 1.381 c-0.004 0.022 -0.009 0.046 -0.014 0.068c-0.009 0.041 -0.018 0.082 -0.029 0.122c-0.018 0.073 -0.038 0.146 -0.061 0.215 c-0.003 0.009 -0.005 0.016 -0.008 0.023c-0.026 0.08 -0.056 0.157 -0.087 0.232c-0.002 0.003 -0.002 0.005 -0.003 0.008 c-0.877 2.054 -4.16 2.829 -17.721 3.059c-0.013 0.001 -0.025 0.001 -0.038 0.001l0 0c-5.533 0.094 -12.769 0.097 -22.251 0.059 c-16.625 -0.067 -25.814 16.252 -28.747 22.566c4.02 22.23 15.638 38.071 34.725 48.813c0.361 0.203 0.29 0.371 -0.137 0.489 c3.732 2.257 -45.123 0.062 -67.593 -28.518c-19.944 4.957 -37.327 4.623 -52.308 1.107c-2.877 0.081 -6.462 0.44 -10.717 1.326 c-9.962 9.028 -24.224 25.701 -24.988 45.604c0 0 -0.046 -0.036 -0.126 -0.102c-0.01 0.191 -0.028 0.38 -0.036 0.571 c0 0 -30.358 -23.332 -25.814 -86.941c-0.011 -1.018 -0.032 -1.993 -0.06 -2.937c-8.216 -11.144 -12.293 -20.51 -12.596 -22.578 C13.398 284.822 6.011 262.517 0 228.654c0 0 4.204 13.333 12.642 28.433c-6.206 -19.011 -11.082 -48.578 -8.218 -92.928 c0 0 0.757 9.833 3.437 23.997c2.093 -27.505 11.259 -61.462 34.429 -101.394c44.474 -76.66 112.835 -115.37 188.396 -121.308 c13.418 -1.106 27.025 -1.132 40.712 -0.093c1.258 0.089 2.516 0.182 3.775 0.287c15.482 1.087 31.067 3.426 46.619 7.183 C534.378 24.23 511.263 280.93 511.263 280.93z"/>
<glyph unicode="&#xE07D;" glyph-name="firewire" horiz-adv-x="512" d="M253.652 305.651c-54.352 0 -98.411 -43.911 -98.411 -98.086 c0 -54.176 44.059 -98.089 98.411 -98.089c54.355 0 98.401 43.913 98.401 98.089C352.054 261.74 308.008 305.651 253.652 305.651zM253.652 152.633c-30.435 0 -55.11 24.6 -55.11 54.932c0 30.33 24.676 54.934 55.11 54.934c30.43 0 55.113 -24.604 55.113 -54.934 C308.766 177.232 284.082 152.633 253.652 152.633zM188.707 23.155H318.6v43.168H188.707V23.155zM188.707 -63.173H318.6 v43.165H188.707V-63.173zM168.755 383.729l-91.848 -91.547l30.611 -30.526l91.855 91.563L168.755 383.729zM107.518 444.26 L15.673 352.707l30.618 -30.522l91.853 92.071L107.518 444.26zM414.32 448.18L313.498 347.676l80.208 -79.456l100.827 99.506L414.32 448.18z"/>
<glyph unicode="&#x21E4;" glyph-name="first" horiz-adv-x="512" d="M512 -64L128 192L512 448ZM0 384l128 0l0 -384l-128 0Z"/>
<glyph unicode="&#xE07E;" glyph-name="flag-2" horiz-adv-x="512" d="M497.434 349.841C173.963 220.351 304.983 576.855 54.1 393.398L1.646 382.559l95.92 -413.561h62.237l-47.897 197.109 c220.389 184.753 129.938 -217.2 397.982 172.253C516.035 347.288 507.811 353.994 497.434 349.841z"/>
<glyph unicode="&#xE07F;" glyph-name="flag" horiz-adv-x="512" d="M2.379 -63.836L2.379 416L64 416L64 -63.836L2.379 -63.836ZM259.825 159.791C153.214 257.658 96 159.51 96 159.51V416.49c0 0 134.508 83.031 197.972 -33.868l0.006 0.169 C388.499 228.955 512 320 512 320S366.432 61.921 259.825 159.791z"/>
<glyph unicode="&#xE080;" glyph-name="flickr-2" horiz-adv-x="512" d="M426.687 448H85.344C38.406 448 0 409.594 0 362.659v-341.313C0 -25.625 38.406 -64 85.344 -64h341.342 C473.622 -64 512 -25.623 512 21.348V362.659C512 409.594 473.622 448 426.687 448zM160 112c-44.183 0 -80 35.816 -80 80 c0 44.183 35.817 80 80 80s80 -35.817 80 -80C240 147.816 204.183 112 160 112zM352 112c-44.182 0 -80 35.816 -80 80 c0 44.183 35.818 80 80 80c44.184 0 80 -35.817 80 -80C432 147.816 396.184 112 352 112z"/>
<glyph unicode="&#xE081;" glyph-name="flickr" horiz-adv-x="512" d="M0 192C0 253.855892 50.144108 304 112 304C173.855892 304 224 253.855892 224 192C224 130.144108 173.855892 80 112 80C50.144108 80 0 130.144108 0 192ZM288 192C288 253.855892 338.144108 304 400 304C461.855892 304 512 253.855892 512 192C512 130.144108 461.855892 80 400 80C338.144108 80 288 130.144108 288 192Z"/>
<glyph unicode="&#xE082;" glyph-name="floppy" horiz-adv-x="512" d="M448 448H0v-512h512V384L448 448zM320 384v-128h-64V384H320zM448 0H64V384h31.5v-128c0 -17.674 14.327 -32 32 -32H352 c17.673 0 32 14.326 32 32V384h37.489L448 357.491V0z"/>
<glyph unicode="&#xE083;" glyph-name="folder" horiz-adv-x="512" d="M511.231 287.934c0 9.727 -7.136 17.811 -16.581 19.57v0.365H16.113v-0.378c-9.408 -1.785 -16.508 -9.858 -16.508 -19.557 l32.395 -268C32 8.924 34.333 0 45.617 0H468.5c11.285 0 13.617 8.924 13.617 19.934L511.231 287.934zM494.65 356.312 c0 10.358 -8.605 18.75 -19.227 18.75l-237.476 -0.003c-7.604 0.186 -13.463 13.659 -13.463 18.814l0.003 2.194 c0 11.011 -9.149 19.933 -20.435 19.933l-135.19 0.003c-11.288 0 -20.438 -8.922 -20.438 -19.933l0.005 -2.194 c0 -5.191 -5.938 -18.828 -13.619 -18.828h0.183c-10.459 -0.182 -18.881 -8.494 -18.881 -18.737v-16.311H494.65V356.312z"/>
<glyph unicode="&#xE084;" glyph-name="folders" horiz-adv-x="512" d="M448 337.837c0 26.054 -25.933 26.054 -25.933 26.054H89.932c0 0 -25.932 0 -25.932 -26.054v-18.054h384V337.837zM359.743 416 H152.256c0 0 -23.932 -6 -23.932 -32.054h256.352C384.676 410 359.743 416 359.743 416zM495.348 304.582C480 320 480 320 480 320v-32.507 H30.933v31.708c0 0 0 0 -15.348 -15.418s-19.344 -11.562 -13.166 -44.129c6.146 -32.441 35.911 -210.388 40.337 -234.473 c4.854 -26.395 31.698 -26.049 31.698 -26.049h363.09c0 0 26.842 -0.346 31.698 26.049c4.426 24.085 34.18 202.032 40.338 234.473 C515.759 292.222 510.695 289.163 495.348 304.582zM352 186.854c0 0 7.733 -26.854 -18.198 -26.854H178.198 C152.266 160 160 186.054 160 186.054l-0.5 37.145L192 224v-32h128v32h32V186.854z"/>
<glyph unicode="&#xE085;" glyph-name="font-2" horiz-adv-x="512" d="M288.281 448h126.88L512 -64H403.983l-18.769 105.247H169.508L111.848 -64H0L288.281 448zM217.096 129.476h153.006 l-39.43 192.463L217.096 129.476z"/>
<glyph unicode="&#xE086;" glyph-name="font" horiz-adv-x="512" d="M183.251 32.312v14.96c28.048 4.207 31.32 8.882 24.307 28.984c-5.142 15.426 -13.089 37.397 -21.504 59.835H93.028 c-6.077 -16.828 -12.624 -35.061 -18.233 -53.759c-7.948 -25.243 -5.61 -31.319 28.516 -35.061v-14.96H0v14.96 c30.387 3.741 36.462 8.414 52.357 48.617l96.3 241.686l20.568 5.609c29.452 -81.34 58.903 -165.487 89.289 -245.891 c15.428 -41.139 21.502 -46.747 51.422 -50.021v-14.96H183.251zM141.178 266.518h-0.936C126.217 230.523 113.596 194.06 100.505 159 h78.07L141.178 266.518zM465.252 26.703c-11.219 0 -20.568 4.208 -26.178 9.351c-6.543 6.076 -9.816 12.154 -11.688 18.697 c-18.232 -12.153 -40.67 -28.048 -51.422 -28.048c-37.396 0 -60.773 29.919 -60.773 58.901c0 23.843 11.688 35.996 36.465 45.346 c27.58 9.817 63.109 21.504 73.861 30.386v12.155c0 30.852 -12.623 48.149 -32.256 48.149c-7.48 0 -13.09 -2.804 -17.766 -8.415 c-5.139 -6.545 -9.348 -17.297 -13.555 -31.789c-2.805 -10.751 -8.885 -14.024 -17.299 -14.024c-10.75 0 -25.711 10.284 -25.711 21.972 c0 7.947 5.611 13.557 15.43 21.036c16.359 11.22 48.146 28.049 74.793 33.191c17.299 0 31.322 -4.208 43.008 -13.557 c19.168 -14.491 23.375 -34.126 23.375 -59.836v-80.406c0 -21.504 7.48 -27.58 15.428 -27.58c5.607 0 11.686 1.869 16.359 4.207 L512 52.415L465.252 26.703zM425.518 144.04c-8.883 -4.675 -21.971 -11.221 -31.789 -16.362 c-15.895 -7.479 -24.307 -16.361 -24.307 -32.723c0 -25.243 17.762 -35.528 29.918 -35.528c8.881 0 18.23 4.207 26.178 10.751V144.04z"/>
<glyph unicode="&#x2443;" glyph-name="fork" horiz-adv-x="448" d="M320 448v-62c0 -25.632 -10 -49.744 -28.064 -67.808L110.88 138.128C82.256 109.568 66.496 72.064 64.752 32H0 l96 -96l96 96H128.688c1.68 23.008 10.944 44.368 27.376 60.88l181.056 180C367.376 303.12 384 343.248 384 386V448H320zM383.248 32c-1.744 40.064 -17.568 77.568 -46.192 106.256l-35.68 35.44L256 128.56l35.872 -35.68 c16.496 -16.432 25.744 -37.872 27.44 -60.88H256l96 -96l96 96H383.248z"/>
<glyph unicode="&#xE087;" glyph-name="forrst-2" horiz-adv-x="512" d="M512 362.658C512 409.791 473.804 448 426.688 448H85.313C38.196 448 0 409.791 0 362.658v-341.316C0 -25.791 38.196 -64 85.313 -64 h341.375C473.804 -64 512 -25.791 512 21.342V362.658zM414.05 12.288H272.384v60.739l76.841 36.324l-8.453 17.234l-68.388 -32.023 v24.023l46.889 22.48l-9.458 17.48l-37.431 -17.42v42.678H240.64v-66.998l-42.799 22.741l-10.763 -15.996l53.562 -30.262v-81.006 H98.168L256.332 374.221L414.05 12.288z"/>
<glyph unicode="&#xE088;" glyph-name="forrst" horiz-adv-x="512" d="M217.984 -64L217.984 51.744L142.464 94.432L157.723 117.02L217.984 84.917L217.984 179.712L262.528 179.712L262.528 119.223L315.485 143.775L328.834 119.136L262.528 87.426L262.528 53.557L359.153 98.71L371.084 74.419L262.528 23.155L262.528 -64L463.434 -64L240.31 448L16.567 -64Z"/>
<glyph unicode="&#xE089;" glyph-name="fullscreen-exit" horiz-adv-x="512" d="M393.376 9.376L466.752 -64L512 -18.752L438.624 54.624L512 128L320 128L320 -64ZM0 256L192 256L192 448L118.624 374.624L46 447.312L0.752 402.064L73.376 329.376ZM0 -18.752L45.248 -64L118.624 9.376L192 -64L192 128L0 128L73.376 54.624ZM320 256L512 256L438.624 329.376L511.376 402.064L466.128 447.312L393.376 374.624L320 448Z"/>
<glyph unicode="&#xE08A;" glyph-name="fullscreen" horiz-adv-x="512" d="M438.624 54.624L365.248 128L320 82.752L393.376 9.376L320 -64L512 -64L512 128ZM192 448L0 448L0 256L73.376 329.376L146.064 256.752L191.312 302L118.624 374.624ZM192 82.752L146.752 128L73.376 54.624L0 128L0 -64L192 -64L118.624 9.376ZM512 448L320 448L393.376 374.624L320.688 302L365.936 256.752L438.624 329.376L512 256Z"/>
<glyph unicode="&#xE08B;" glyph-name="funnel" horiz-adv-x="512" d="M256 447C115.168 447 1 413.017 1 371.098v-19.009c0 -11.522 4.616 -21.947 12.069 -29.601h-0.065l0.365 -0.365 c0.049 -0.05 0.117 -0.117 0.166 -0.167l164.754 -164.654c11.405 -11.438 14.93 -22.444 14.93 -36.522v-153.491 c0 -15.637 29.646 -30.288 62.5 -30.288c32.855 0 63.5 14.651 63.5 30.288V120.796v-0.017c0 14.111 2.541 25.135 13.996 36.59 c0.646 0.646 1.063 1.179 1.361 1.645l162.796 162.047C505.703 328.814 511 339.804 511 352.089V371.098C511 413.017 396.831 447 256 447zM256.017 288.097C133.945 288.097 35 337.925 35 366.098c0 28.156 98.944 51 221.016 51c122.038 0 220.983 -22.843 220.983 -51 C477 337.925 378.055 288.097 256.017 288.097z"/>
</font>
</defs>
</svg>
